  0
SECTION
  2
HEADER
  9
$ACADVER
  1
AC1015
  9
$ACADMAINTVER
 70
     6
  9
$DWGCODEPAGE
  3
ANSI_1252
  9
$INSBASE
 10
0.0
 20
0.0
 30
0.0
  9
$EXTMIN
 10
-105.0000000000001
 20
0.0
 30
0.0
  9
$EXTMAX
 10
0.0
 20
148.5000000000001
 30
0.0
  9
$LIMMIN
 10
0.0
 20
0.0
  9
$LIMMAX
 10
12.0
 20
9.0
  9
$ORTHOMODE
 70
     0
  9
$REGENMODE
 70
     1
  9
$FILLMODE
 70
     1
  9
$QTEXTMODE
 70
     0
  9
$MIRRTEXT
 70
     1
  9
$LTSCALE
 40
1.0
  9
$ATTMODE
 70
     1
  9
$TEXTSIZE
 40
0.2
  9
$TRACEWID
 40
0.05
  9
$TEXTSTYLE
  7
Standard
  9
$CLAYER
  8
0
  9
$CELTYPE
  6
ByLayer
  9
$CECOLOR
 62
   256
  9
$CELTSCALE
 40
1.0
  9
$DISPSILH
 70
     0
  9
$DIMSCALE
 40
1.0
  9
$DIMASZ
 40
0.18
  9
$DIMEXO
 40
0.0625
  9
$DIMDLI
 40
0.38
  9
$DIMRND
 40
0.0
  9
$DIMDLE
 40
0.0
  9
$DIMEXE
 40
0.18
  9
$DIMTP
 40
0.0
  9
$DIMTM
 40
0.0
  9
$DIMTXT
 40
0.18
  9
$DIMCEN
 40
0.09
  9
$DIMTSZ
 40
0.0
  9
$DIMTOL
 70
     0
  9
$DIMLIM
 70
     0
  9
$DIMTIH
 70
     1
  9
$DIMTOH
 70
     1
  9
$DIMSE1
 70
     0
  9
$DIMSE2
 70
     0
  9
$DIMTAD
 70
     0
  9
$DIMZIN
 70
     0
  9
$DIMBLK
  1

  9
$DIMASO
 70
     1
  9
$DIMSHO
 70
     1
  9
$DIMPOST
  1

  9
$DIMAPOST
  1

  9
$DIMALT
 70
     0
  9
$DIMALTD
 70
     2
  9
$DIMALTF
 40
25.4
  9
$DIMLFAC
 40
1.0
  9
$DIMTOFL
 70
     0
  9
$DIMTVP
 40
0.0
  9
$DIMTIX
 70
     0
  9
$DIMSOXD
 70
     0
  9
$DIMSAH
 70
     0
  9
$DIMBLK1
  1

  9
$DIMBLK2
  1

  9
$DIMSTYLE
  2
Standard
  9
$DIMCLRD
 70
     0
  9
$DIMCLRE
 70
     0
  9
$DIMCLRT
 70
     0
  9
$DIMTFAC
 40
1.0
  9
$DIMGAP
 40
0.09
  9
$DIMJUST
 70
     0
  9
$DIMSD1
 70
     0
  9
$DIMSD2
 70
     0
  9
$DIMTOLJ
 70
     1
  9
$DIMTZIN
 70
     0
  9
$DIMALTZ
 70
     0
  9
$DIMALTTZ
 70
     0
  9
$DIMUPT
 70
     0
  9
$DIMDEC
 70
     4
  9
$DIMTDEC
 70
     4
  9
$DIMALTU
 70
     2
  9
$DIMALTTD
 70
     2
  9
$DIMTXSTY
  7
Standard
  9
$DIMAUNIT
 70
     0
  9
$DIMADEC
 70
     0
  9
$DIMALTRND
 40
0.0
  9
$DIMAZIN
 70
     0
  9
$DIMDSEP
 70
    46
  9
$DIMATFIT
 70
     3
  9
$DIMFRAC
 70
     0
  9
$DIMLDRBLK
  1

  9
$DIMLUNIT
 70
     2
  9
$DIMLWD
 70
    -2
  9
$DIMLWE
 70
    -2
  9
$DIMTMOVE
 70
     0
  9
$LUNITS
 70
     2
  9
$LUPREC
 70
     4
  9
$SKETCHINC
 40
0.1
  9
$FILLETRAD
 40
0.5
  9
$AUNITS
 70
     0
  9
$AUPREC
 70
     0
  9
$MENU
  1
.
  9
$ELEVATION
 40
0.0
  9
$PELEVATION
 40
0.0
  9
$THICKNESS
 40
0.0
  9
$LIMCHECK
 70
     0
  9
$CHAMFERA
 40
0.5
  9
$CHAMFERB
 40
0.5
  9
$CHAMFERC
 40
1.0
  9
$CHAMFERD
 40
0.0
  9
$SKPOLY
 70
     0
  9
$TDCREATE
 40
2456997.488054051
  9
$TDUCREATE
 40
2456997.446387384
  9
$TDUPDATE
 40
2456997.488054236
  9
$TDUUPDATE
 40
2456997.446387569
  9
$TDINDWG
 40
0.0000000116
  9
$TDUSRTIMER
 40
0.0000000116
  9
$USRTIMER
 70
     1
  9
$ANGBASE
 50
0.0
  9
$ANGDIR
 70
     0
  9
$PDMODE
 70
     0
  9
$PDSIZE
 40
0.0
  9
$PLINEWID
 40
0.0
  9
$SPLFRAME
 70
     0
  9
$SPLINETYPE
 70
     6
  9
$SPLINESEGS
 70
     8
  9
$HANDSEED
  5
1B5
  9
$SURFTAB1
 70
     6
  9
$SURFTAB2
 70
     6
  9
$SURFTYPE
 70
     6
  9
$SURFU
 70
     6
  9
$SURFV
 70
     6
  9
$UCSBASE
  2

  9
$UCSNAME
  2

  9
$UCSORG
 10
0.0
 20
0.0
 30
0.0
  9
$UCSXDIR
 10
1.0
 20
0.0
 30
0.0
  9
$UCSYDIR
 10
0.0
 20
1.0
 30
0.0
  9
$UCSORTHOREF
  2

  9
$UCSORTHOVIEW
 70
     0
  9
$UCSORGTOP
 10
0.0
 20
0.0
 30
0.0
  9
$UCSORGBOTTOM
 10
0.0
 20
0.0
 30
0.0
  9
$UCSORGLEFT
 10
0.0
 20
0.0
 30
0.0
  9
$UCSORGRIGHT
 10
0.0
 20
0.0
 30
0.0
  9
$UCSORGFRONT
 10
0.0
 20
0.0
 30
0.0
  9
$UCSORGBACK
 10
0.0
 20
0.0
 30
0.0
  9
$PUCSBASE
  2

  9
$PUCSNAME
  2

  9
$PUCSORG
 10
0.0
 20
0.0
 30
0.0
  9
$PUCSXDIR
 10
1.0
 20
0.0
 30
0.0
  9
$PUCSYDIR
 10
0.0
 20
1.0
 30
0.0
  9
$PUCSORTHOREF
  2

  9
$PUCSORTHOVIEW
 70
     0
  9
$PUCSORGTOP
 10
0.0
 20
0.0
 30
0.0
  9
$PUCSORGBOTTOM
 10
0.0
 20
0.0
 30
0.0
  9
$PUCSORGLEFT
 10
0.0
 20
0.0
 30
0.0
  9
$PUCSORGRIGHT
 10
0.0
 20
0.0
 30
0.0
  9
$PUCSORGFRONT
 10
0.0
 20
0.0
 30
0.0
  9
$PUCSORGBACK
 10
0.0
 20
0.0
 30
0.0
  9
$USERI1
 70
     0
  9
$USERI2
 70
     0
  9
$USERI3
 70
     0
  9
$USERI4
 70
     0
  9
$USERI5
 70
     0
  9
$USERR1
 40
18.1
  9
$USERR2
 40
0.0
  9
$USERR3
 40
0.0
  9
$USERR4
 40
0.0
  9
$USERR5
 40
0.0
  9
$WORLDVIEW
 70
     1
  9
$SHADEDGE
 70
     3
  9
$SHADEDIF
 70
    70
  9
$TILEMODE
 70
     1
  9
$MAXACTVP
 70
    64
  9
$PINSBASE
 10
0.0
 20
0.0
 30
0.0
  9
$PLIMCHECK
 70
     0
  9
$PEXTMIN
 10
1.00000000000000E+20
 20
1.00000000000000E+20
 30
1.00000000000000E+20
  9
$PEXTMAX
 10
-1.00000000000000E+20
 20
-1.00000000000000E+20
 30
-1.00000000000000E+20
  9
$PLIMMIN
 10
0.0
 20
0.0
  9
$PLIMMAX
 10
12.0
 20
9.0
  9
$UNITMODE
 70
     0
  9
$VISRETAIN
 70
     1
  9
$PLINEGEN
 70
     0
  9
$PSLTSCALE
 70
     1
  9
$TREEDEPTH
 70
  3020
  9
$CMLSTYLE
  2
Standard
  9
$CMLJUST
 70
     0
  9
$CMLSCALE
 40
1.0
  9
$PROXYGRAPHICS
 70
     1
  9
$MEASUREMENT
 70
     1
  9
$CELWEIGHT
370
    -1
  9
$ENDCAPS
280
     0
  9
$JOINSTYLE
280
     0
  9
$LWDISPLAY
290
     0
  9
$INSUNITS
 70
     4
  9
$HYPERLINKBASE
  1

  9
$STYLESHEET
  1

  9
$XEDIT
290
     1
  9
$CEPSNTYPE
380
     0
  9
$PSTYLEMODE
290
     1
  9
$FINGERPRINTGUID
  2
{CA527D94-4267-4B38-8534-6236D16B5003}
  9
$VERSIONGUID
  2
{FAEB1C32-E019-11D5-929B-00C0DF256EC4}
  9
$EXTNAMES
290
     1
  9
$PSVPSCALE
 40
0.0
  9
$OLESTARTUP
290
     0
  0
ENDSEC
  0
SECTION
  2
CLASSES
  0
CLASS
  1
ACDBDICTIONARYWDFLT
  2
AcDbDictionaryWithDefault
  3
ObjectDBX Classes
 90
        0
280
     0
281
     0
  0
CLASS
  1
VISUALSTYLE
  2
AcDbVisualStyle
  3
ObjectDBX Classes
 90
     4095
280
     0
281
     0
  0
CLASS
  1
MATERIAL
  2
AcDbMaterial
  3
ObjectDBX Classes
 90
     1153
280
     0
281
     0
  0
CLASS
  1
DICTIONARYVAR
  2
AcDbDictionaryVar
  3
ObjectDBX Classes
 90
        0
280
     0
281
     0
  0
CLASS
  1
ACDBPLACEHOLDER
  2
AcDbPlaceHolder
  3
ObjectDBX Classes
 90
        0
280
     0
281
     0
  0
CLASS
  1
LAYOUT
  2
AcDbLayout
  3
ObjectDBX Classes
 90
        0
280
     0
281
     0
  0
ENDSEC
  0
SECTION
  2
TABLES
  0
TABLE
  2
VPORT
  5
8
330
0
100
AcDbSymbolTable
 70
     1
  0
VPORT
  5
29
330
8
100
AcDbSymbolTableRecord
100
AcDbViewportTableRecord
  2
*Active
 70
     0
 10
0.0
 20
0.0
 11
1.0
 21
1.0
 12
-52.50000000000005
 22
74.25000000000006
 13
0.0
 23
0.0
 14
0.5
 24
0.5
 15
0.5
 25
0.5
 16
0.0
 26
0.0
 36
1.0
 17
0.0
 27
0.0
 37
0.0
 40
163.3500000000001
 41
1.60267857142857
 42
50.0
 43
0.0
 44
0.0
 50
0.0
 51
0.0
 71
     0
 72
   100
 73
     1
 74
     3
 75
     0
 76
     0
 77
     0
 78
     0
281
     0
 65
     1
110
0.0
120
0.0
130
0.0
111
1.0
121
0.0
131
0.0
112
0.0
122
1.0
132
0.0
 79
     0
146
0.0
  0
ENDTAB
  0
TABLE
  2
LTYPE
  5
5
330
0
100
AcDbSymbolTable
 70
     8
  0
LTYPE
  5
14
330
5
100
AcDbSymbolTableRecord
100
AcDbLinetypeTableRecord
  2
ByBlock
 70
     0
  3

 72
    65
 73
     0
 40
0.0
  0
LTYPE
  5
15
330
5
100
AcDbSymbolTableRecord
100
AcDbLinetypeTableRecord
  2
ByLayer
 70
     0
  3

 72
    65
 73
     0
 40
0.0
  0
LTYPE
  5
16
330
5
100
AcDbSymbolTableRecord
100
AcDbLinetypeTableRecord
  2
Continuous
 70
     0
  3
Solid line
 72
    65
 73
     0
 40
0.0
  0
LTYPE
  5
3F
330
5
100
AcDbSymbolTableRecord
100
AcDbLinetypeTableRecord
  2
DASHED
 70
     0
  3
Dashed
 72
    65
 73
     2
 40
15.0
 49
7.0
 74
     0
 49
-8.0
 74
     0
  0
LTYPE
  5
40
330
5
100
AcDbSymbolTableRecord
100
AcDbLinetypeTableRecord
  2
DOTTED
 70
     0
  3
Dotted
 72
    65
 73
     2
 40
1.0
 49
0.0
 74
     0
 49
-1.0
 74
     0
  0
LTYPE
  5
41
330
5
100
AcDbSymbolTableRecord
100
AcDbLinetypeTableRecord
  2
DOT_CENTER
 70
     0
  3
Dot_Center
 72
    65
 73
     4
 40
14.0
 49
12.0
 74
     0
 49
-1.0
 74
     0
 49
0.0
 74
     0
 49
-1.0
 74
     0
  0
LTYPE
  5
42
330
5
100
AcDbSymbolTableRecord
100
AcDbLinetypeTableRecord
  2
LONG_DASHED
 70
     0
  3
Long_Dashed
 72
    65
 73
     2
 40
15.0
 49
10.0
 74
     0
 49
-5.0
 74
     0
  0
LTYPE
  5
43
330
5
100
AcDbSymbolTableRecord
100
AcDbLinetypeTableRecord
  2
DASH_CENTER
 70
     0
  3
Dash_Center
 72
    65
 73
     4
 40
14.0
 49
11.0
 74
     0
 49
-1.0
 74
     0
 49
1.0
 74
     0
 49
-1.0
 74
     0
  0
LTYPE
  5
44
330
5
100
AcDbSymbolTableRecord
100
AcDbLinetypeTableRecord
  2
PHANTOM
 70
     0
  3
Phantom
 72
    65
 73
     6
 40
13.0
 49
10.0
 74
     0
 49
-1.0
 74
     0
 49
0.0
 74
     0
 49
-1.0
 74
     0
 49
0.0
 74
     0
 49
-1.0
 74
     0
  0
LTYPE
  5
45
330
5
100
AcDbSymbolTableRecord
100
AcDbLinetypeTableRecord
  2
CENTER_DASH_DASH
 70
     0
  3
Center_Dash_Dash
 72
    65
 73
     6
 40
14.0
 49
9.0
 74
     0
 49
-1.0
 74
     0
 49
1.0
 74
     0
 49
-1.0
 74
     0
 49
1.0
 74
     0
 49
-1.0
 74
     0
  0
ENDTAB
  0
TABLE
  2
LAYER
  5
2
330
0
100
AcDbSymbolTable
 70
     2
  0
LAYER
  5
10
330
2
100
AcDbSymbolTableRecord
100
AcDbLayerTableRecord
  2
0
 70
     0
 62
     7
  6
Continuous
370
    -3
390
F
  0
LAYER
  5
46
330
2
100
AcDbSymbolTableRecord
100
AcDbLayerTableRecord
  2
1
 70
     0
 62
     7
  6
Continuous
370
    -3
390
F
  0
ENDTAB
  0
TABLE
  2
STYLE
  5
3
330
0
100
AcDbSymbolTable
 70
     5
  0
STYLE
  5
11
330
3
100
AcDbSymbolTableRecord
100
AcDbTextStyleTableRecord
  2
Standard
 70
     0
 40
0.0
 41
1.0
 50
0.0
 71
     0
 42
0.2
  3
txt
  4

  0
STYLE
  5
9B
330
3
100
AcDbSymbolTableRecord
100
AcDbTextStyleTableRecord
  2
CONVERTER_11
 70
     0
 40
0.0
 41
1.2
 50
0.0
 71
     0
 42
0.2
  3
ARIAL.TTF
  4

  0
STYLE
  5
A0
330
3
100
AcDbSymbolTableRecord
100
AcDbTextStyleTableRecord
  2
CONVERTER_12
 70
     0
 40
0.0
 41
1.38
 50
0.0
 71
     0
 42
0.2
  3
ARIAL.TTF
  4

  0
STYLE
  5
FA
330
3
100
AcDbSymbolTableRecord
100
AcDbTextStyleTableRecord
  2
CONVERTER_13
 70
     0
 40
0.0
 41
1.32
 50
0.0
 71
     0
 42
0.2
  3
ARIAL.TTF
  4

  0
STYLE
  5
102
330
3
100
AcDbSymbolTableRecord
100
AcDbTextStyleTableRecord
  2
CONVERTER_14
 70
     0
 40
0.0
 41
0.95
 50
0.0
 71
     0
 42
0.2
  3
simplex.shx
  4

  0
ENDTAB
  0
TABLE
  2
VIEW
  5
6
330
0
100
AcDbSymbolTable
 70
     0
  0
ENDTAB
  0
TABLE
  2
UCS
  5
7
330
0
100
AcDbSymbolTable
 70
     0
  0
ENDTAB
  0
TABLE
  2
APPID
  5
9
330
0
100
AcDbSymbolTable
 70
     1
  0
APPID
  5
12
330
9
100
AcDbSymbolTableRecord
100
AcDbRegAppTableRecord
  2
ACAD
 70
     0
  0
ENDTAB
  0
TABLE
  2
DIMSTYLE
  5
A
330
0
100
AcDbSymbolTable
 70
    12
100
AcDbDimStyleTable
  0
DIMSTYLE
105
27
330
A
100
AcDbSymbolTableRecord
100
AcDbDimStyleTableRecord
  2
Standard
 70
     0
178
     0
340
11
  0
DIMSTYLE
105
110
102
{ACAD_REACTORS
330
111
102
}
330
A
100
AcDbSymbolTableRecord
100
AcDbDimStyleTableRecord
  2
ME10_DIM_10
 70
     0
  3
ø<>
 41
1.5
 42
0.25
 44
0.5
 73
     0
 74
     0
 77
     1
 78
     8
140
1.5
147
1.0
172
     1
173
     1
174
     1
175
     1
176
     2
177
     2
271
     2
178
     4
271
     2
340
102
  0
DIMSTYLE
105
11B
102
{ACAD_REACTORS
330
11C
102
}
330
A
100
AcDbSymbolTableRecord
100
AcDbDimStyleTableRecord
  2
ME10_DIM_11
 70
     0
  3
ø<>
 41
1.5
 42
0.25
 44
0.5
 73
     0
 74
     0
 77
     1
 78
     8
140
1.5
147
1.0
172
     1
173
     1
174
     1
175
     1
176
     2
177
     2
271
     2
178
     4
271
     2
340
102
  0
DIMSTYLE
105
126
102
{ACAD_REACTORS
330
127
102
}
330
A
100
AcDbSymbolTableRecord
100
AcDbDimStyleTableRecord
  2
ME10_DIM_12
 70
     0
  3
ø<>
 41
1.5
 42
0.25
 44
0.5
 73
     0
 74
     0
 77
     1
 78
     8
140
1.5
147
1.0
172
     1
173
     1
174
     1
175
     1
176
     2
177
     2
271
     2
178
     4
271
     2
340
102
  0
DIMSTYLE
105
133
102
{ACAD_REACTORS
330
134
102
}
330
A
100
AcDbSymbolTableRecord
100
AcDbDimStyleTableRecord
  2
ME10_DIM_13
 70
     0
 41
1.5
 42
0.25
 44
0.5
 73
     0
 74
     0
 77
     1
 78
     8
140
1.5
147
1.0
172
     1
173
     1
174
     1
175
     1
176
     2
177
     2
271
     2
178
     4
271
     2
340
102
  0
DIMSTYLE
105
13E
102
{ACAD_REACTORS
330
13F
102
}
330
A
100
AcDbSymbolTableRecord
100
AcDbDimStyleTableRecord
  2
ME10_DIM_14
 70
     0
 41
1.5
 42
0.25
 44
0.5
 73
     0
 74
     0
 77
     1
 78
     8
140
1.5
147
1.0
172
     1
173
     1
174
     1
175
     1
176
     2
177
     2
271
     2
178
     4
271
     2
340
102
  0
DIMSTYLE
105
14B
102
{ACAD_REACTORS
330
14C
102
}
330
A
100
AcDbSymbolTableRecord
100
AcDbDimStyleTableRecord
  2
ME10_DIM_15
 70
     0
 41
1.5
 42
0.25
 44
0.5
 73
     0
 74
     0
 77
     1
 78
     8
140
1.5
147
1.0
172
     1
173
     1
174
     1
175
     1
176
     2
177
     2
271
     2
178
     4
271
     2
340
102
  0
DIMSTYLE
105
156
102
{ACAD_REACTORS
330
157
102
}
330
A
100
AcDbSymbolTableRecord
100
AcDbDimStyleTableRecord
  2
ME10_DIM_16
 70
     0
 41
1.5
 42
1.0
 44
0.5
 73
     0
 74
     0
 77
     1
 78
     8
140
1.5
147
1.0
172
     1
173
     1
174
     1
175
     1
176
     2
177
     2
271
     2
178
     4
271
     2
340
102
  0
DIMSTYLE
105
161
102
{ACAD_REACTORS
330
162
102
}
330
A
100
AcDbSymbolTableRecord
100
AcDbDimStyleTableRecord
  2
ME10_DIM_17
 70
     0
 41
1.5
 42
0.25
 44
0.5
 73
     0
 74
     0
 77
     1
 78
     8
140
1.5
147
1.0
172
     1
173
     1
174
     1
175
     1
176
     2
177
     2
271
     2
178
     4
271
     2
340
102
  0
DIMSTYLE
105
16C
102
{ACAD_REACTORS
330
16D
102
}
330
A
100
AcDbSymbolTableRecord
100
AcDbDimStyleTableRecord
  2
ME10_DIM_18
 70
     0
  3
ø<>
 41
1.5
 42
0.25
 44
0.5
 73
     0
 74
     0
 77
     1
 78
     8
140
1.5
147
1.0
172
     1
173
     1
174
     1
175
     1
176
     2
177
     2
271
     2
178
     4
271
     2
340
102
  0
DIMSTYLE
105
179
102
{ACAD_REACTORS
330
17A
102
}
330
A
100
AcDbSymbolTableRecord
100
AcDbDimStyleTableRecord
  2
ME10_DIM_19
 70
     0
 41
1.5
 42
0.25
 44
0.5
 73
     0
 74
     0
 77
     1
 78
     8
140
1.5
147
1.0
172
     1
173
     1
174
     1
175
     1
176
     2
177
     2
271
     2
178
     4
271
     2
340
102
  0
DIMSTYLE
105
184
102
{ACAD_REACTORS
330
185
102
}
330
A
100
AcDbSymbolTableRecord
100
AcDbDimStyleTableRecord
  2
ME10_DIM_20
 70
     0
 41
1.5
 42
1.0
 44
0.5
 73
     0
 74
     0
 77
     1
 78
     8
140
1.5
147
1.0
172
     1
173
     1
174
     1
175
     1
176
     2
177
     2
271
     2
178
     4
271
     2
340
102
  0
ENDTAB
  0
TABLE
  2
BLOCK_RECORD
  5
1
330
0
100
AcDbSymbolTable
 70
    15
  0
BLOCK_RECORD
  5
1F
330
1
100
AcDbSymbolTableRecord
100
AcDbBlockTableRecord
  2
*Model_Space
340
22
  0
BLOCK_RECORD
  5
1B
330
1
100
AcDbSymbolTableRecord
100
AcDbBlockTableRecord
  2
*Paper_Space
340
1E
  0
BLOCK_RECORD
  5
23
330
1
100
AcDbSymbolTableRecord
100
AcDbBlockTableRecord
  2
*Paper_Space0
340
26
  0
BLOCK_RECORD
  5
47
330
1
100
AcDbSymbolTableRecord
100
AcDbBlockTableRecord
  2
_formato_A4
340
0
102
{BLKREFS
331
4B
102
}
  0
BLOCK_RECORD
  5
4A
330
1
100
AcDbSymbolTableRecord
100
AcDbBlockTableRecord
  2
A4
340
0
102
{BLKREFS
331
4E
102
}
  0
BLOCK_RECORD
  5
FD
330
1
100
AcDbSymbolTableRecord
100
AcDbBlockTableRecord
  2
*D3
340
0
102
{BLKREFS
331
106
102
}
  0
BLOCK_RECORD
  5
107
330
1
100
AcDbSymbolTableRecord
100
AcDbBlockTableRecord
  2
*D4
340
0
  0
BLOCK_RECORD
  5
112
330
1
100
AcDbSymbolTableRecord
100
AcDbBlockTableRecord
  2
*D5
340
0
  0
BLOCK_RECORD
  5
11D
330
1
100
AcDbSymbolTableRecord
100
AcDbBlockTableRecord
  2
*D6
340
0
  0
BLOCK_RECORD
  5
128
330
1
100
AcDbSymbolTableRecord
100
AcDbBlockTableRecord
  2
*D7
340
0
  0
BLOCK_RECORD
  5
135
330
1
100
AcDbSymbolTableRecord
100
AcDbBlockTableRecord
  2
*D8
340
0
  0
BLOCK_RECORD
  5
140
330
1
100
AcDbSymbolTableRecord
100
AcDbBlockTableRecord
  2
*D9
340
0
  0
BLOCK_RECORD
  5
14D
330
1
100
AcDbSymbolTableRecord
100
AcDbBlockTableRecord
  2
*D10
340
0
  0
BLOCK_RECORD
  5
158
330
1
100
AcDbSymbolTableRecord
100
AcDbBlockTableRecord
  2
*D11
340
0
  0
BLOCK_RECORD
  5
163
330
1
100
AcDbSymbolTableRecord
100
AcDbBlockTableRecord
  2
*D12
340
0
  0
BLOCK_RECORD
  5
16E
330
1
100
AcDbSymbolTableRecord
100
AcDbBlockTableRecord
  2
*D13
340
0
  0
BLOCK_RECORD
  5
17B
330
1
100
AcDbSymbolTableRecord
100
AcDbBlockTableRecord
  2
*D14
340
0
  0
ENDTAB
  0
ENDSEC
  0
SECTION
  2
BLOCKS
  0
BLOCK
  5
20
330
1F
100
AcDbEntity
  8
0
100
AcDbBlockBegin
  2
*Model_Space
 70
     0
 10
0.0
 20
0.0
 30
0.0
  3
*Model_Space
  1

  0
ENDBLK
  5
21
330
1F
100
AcDbEntity
  8
0
100
AcDbBlockEnd
  0
BLOCK
  5
1C
330
1B
100
AcDbEntity
 67
     1
  8
0
100
AcDbBlockBegin
  2
*Paper_Space
 70
     0
 10
0.0
 20
0.0
 30
0.0
  3
*Paper_Space
  1

  0
ENDBLK
  5
1D
330
1B
100
AcDbEntity
 67
     1
  8
0
100
AcDbBlockEnd
  0
BLOCK
  5
24
330
23
100
AcDbEntity
  8
0
100
AcDbBlockBegin
  2
*Paper_Space0
 70
     0
 10
0.0
 20
0.0
 30
0.0
  3
*Paper_Space0
  1

  0
ENDBLK
  5
25
330
23
100
AcDbEntity
  8
0
100
AcDbBlockEnd
  0
BLOCK
  5
48
330
47
100
AcDbEntity
  8
0
100
AcDbBlockBegin
  2
_formato_A4
 70
     0
 10
0.0
 20
0.0
 30
0.0
  3
_formato_A4
  1

  0
LINE
  5
4F
330
47
100
AcDbEntity
  8
1
  6
Continuous
 62
     7
100
AcDbLine
 10
-189.0
 20
20.0
 30
0.0
 11
-5.0
 21
20.0
 31
0.0
  0
LINE
  5
50
330
47
100
AcDbEntity
  8
1
  6
Continuous
 62
     7
100
AcDbLine
 10
-189.0
 20
4.99999999999989
 30
0.0
 11
-5.0
 21
4.99999999999989
 31
0.0
  0
LINE
  5
51
330
47
100
AcDbEntity
  8
1
  6
Continuous
 62
     7
100
AcDbLine
 10
-163.9999999999999
 20
35.0
 30
0.0
 11
-163.9999999999999
 21
40.0
 31
0.0
  0
LINE
  5
52
330
47
100
AcDbEntity
  8
1
  6
Continuous
 62
     7
100
AcDbLine
 10
-182.0
 20
35.0
 30
0.0
 11
-182.0
 21
40.0
 31
0.0
  0
LINE
  5
53
330
47
100
AcDbEntity
  8
1
  6
Continuous
 62
     7
100
AcDbLine
 10
-189.0
 20
40.0
 30
0.0
 11
-5.0
 21
40.0
 31
0.0
  0
LINE
  5
54
330
47
100
AcDbEntity
  8
1
  6
Continuous
 62
     7
100
AcDbLine
 10
-163.9999999999999
 20
30.0
 30
0.0
 11
-163.9999999999999
 21
35.0
 31
0.0
  0
LINE
  5
55
330
47
100
AcDbEntity
  8
1
  6
Continuous
 62
     7
100
AcDbLine
 10
-182.0
 20
30.0
 30
0.0
 11
-182.0
 21
35.0
 31
0.0
  0
LINE
  5
56
330
47
100
AcDbEntity
  8
1
  6
Continuous
 62
     7
100
AcDbLine
 10
-189.0
 20
35.0
 30
0.0
 11
-5.0
 21
35.0
 31
0.0
  0
LINE
  5
57
330
47
100
AcDbEntity
  8
1
  6
Continuous
 62
     7
100
AcDbLine
 10
-163.9999999999999
 20
25.0
 30
0.0
 11
-163.9999999999999
 21
30.0
 31
0.0
  0
LINE
  5
58
330
47
100
AcDbEntity
  8
1
  6
Continuous
 62
     7
100
AcDbLine
 10
-182.0
 20
25.0
 30
0.0
 11
-182.0
 21
30.0
 31
0.0
  0
LINE
  5
59
330
47
100
AcDbEntity
  8
1
  6
Continuous
 62
     7
100
AcDbLine
 10
-189.0
 20
30.0
 30
0.0
 11
-5.0
 21
30.0
 31
0.0
  0
LINE
  5
5A
330
47
100
AcDbEntity
  8
1
  6
Continuous
 62
     7
100
AcDbLine
 10
-163.9999999999999
 20
20.0
 30
0.0
 11
-163.9999999999999
 21
25.0
 31
0.0
  0
LINE
  5
5B
330
47
100
AcDbEntity
  8
1
  6
Continuous
 62
     7
100
AcDbLine
 10
-182.0
 20
20.0
 30
0.0
 11
-182.0
 21
25.0
 31
0.0
  0
LINE
  5
5C
330
47
100
AcDbEntity
  8
1
  6
Continuous
 62
     7
100
AcDbLine
 10
-189.0
 20
25.0
 30
0.0
 11
-5.0
 21
25.0
 31
0.0
  0
LINE
  5
5D
102
{ACAD_REACTORS
330
A2
102
}
330
47
100
AcDbEntity
  8
1
  6
Continuous
 62
     7
100
AcDbLine
 10
-14.15712516009418
 20
10.55800208038033
 30
0.0
 11
-15.4904584934275
 21
9.78877131114973
 31
0.0
  0
LINE
  5
5E
102
{ACAD_REACTORS
330
A2
102
}
330
47
100
AcDbEntity
  8
1
  6
Continuous
 62
     7
100
AcDbLine
 10
-15.32369931125729
 20
10.65463653264794
 30
0.0
 11
-14.4902734624205
 21
11.13545913774624
 31
0.0
  0
LINE
  5
5F
102
{ACAD_REACTORS
330
A2
102
}
330
47
100
AcDbEntity
  8
1
  6
Continuous
 62
     7
100
AcDbLine
 10
-15.32369931125729
 20
12.16666666666663
 30
0.0
 11
-15.32369931125729
 21
10.65463653264794
 31
0.0
  0
LINE
  5
60
102
{ACAD_REACTORS
330
A2
102
}
330
47
100
AcDbEntity
  8
1
  6
Continuous
 62
     7
100
AcDbLine
 10
-14.32369931125729
 20
12.16666666666663
 30
0.0
 11
-15.32369931125729
 21
12.16666666666663
 31
0.0
  0
LINE
  5
61
102
{ACAD_REACTORS
330
A2
102
}
330
47
100
AcDbEntity
  8
1
  6
Continuous
 62
     7
100
AcDbLine
 10
-15.32369931125729
 20
12.83333333333326
 30
0.0
 11
-14.32369931125729
 21
12.83333333333326
 31
0.0
  0
LINE
  5
62
102
{ACAD_REACTORS
330
A2
102
}
330
47
100
AcDbEntity
  8
1
  6
Continuous
 62
     7
100
AcDbLine
 10
-15.32369931125729
 20
14.34536346735195
 30
0.0
 11
-15.32369931125729
 21
12.83333333333326
 31
0.0
  0
LINE
  5
63
102
{ACAD_REACTORS
330
A2
102
}
330
47
100
AcDbEntity
  8
1
  6
Continuous
 62
     7
100
AcDbLine
 10
-14.4902734624205
 20
13.86454086225376
 30
0.0
 11
-15.32369931125729
 21
14.34536346735195
 31
0.0
  0
LINE
  5
64
102
{ACAD_REACTORS
330
A2
102
}
330
47
100
AcDbEntity
  8
1
  6
Continuous
 62
     7
100
AcDbLine
 10
-15.4904584934275
 20
15.21122868885027
 30
0.0
 11
-14.15712516009418
 21
14.44199791961944
 31
0.0
  0
LINE
  5
65
102
{ACAD_REACTORS
330
A3
102
}
330
47
100
AcDbEntity
  8
1
  6
Continuous
 62
     7
100
AcDbLine
 10
-22.65703264459071
 20
10.84673060906323
 30
0.0
 11
-22.65703264459071
 21
14.15326939093666
 31
0.0
  0
LINE
  5
66
102
{ACAD_REACTORS
330
A3
102
}
330
47
100
AcDbEntity
  8
1
  6
Continuous
 62
     7
100
AcDbLine
 10
-21.99036597792409
 20
11.0392519172633
 30
0.0
 11
-21.99036597792409
 21
10.84673060906323
 31
0.0
  0
LINE
  5
67
102
{ACAD_REACTORS
330
A3
102
}
330
47
100
AcDbEntity
  8
1
  6
Continuous
 62
     7
100
AcDbLine
 10
-21.99036597792409
 20
14.15326939093666
 30
0.0
 11
-21.99036597792409
 21
11.0392519172633
 31
0.0
  0
LINE
  5
68
102
{ACAD_REACTORS
330
A4
102
}
330
47
100
AcDbEntity
  8
1
  6
Continuous
 62
     7
100
AcDbLine
 10
-18.82360679575388
 20
8.44261746499581
 30
0.0
 11
-20.99018094691704
 21
9.69256409066691
 31
0.0
  0
LINE
  5
69
102
{ACAD_REACTORS
330
A4
102
}
330
47
100
AcDbEntity
  8
1
  6
Continuous
 62
     7
100
AcDbLine
 10
-20.65703264459071
 20
10.2700211480327
 30
0.0
 11
-18.4904584934275
 21
9.0200745223616
 31
0.0
  0
LINE
  5
6A
102
{ACAD_REACTORS
330
A4
102
}
330
47
100
AcDbEntity
  8
1
  6
Continuous
 62
     7
100
AcDbLine
 10
-20.65703264459071
 20
14.92250016016737
 30
0.0
 11
-20.65703264459071
 21
10.2700211480327
 31
0.0
  0
LINE
  5
6B
102
{ACAD_REACTORS
330
A4
102
}
330
47
100
AcDbEntity
  8
1
  6
Continuous
 62
     7
100
AcDbLine
 10
-21.32369931125734
 20
10.27002114803258
 30
0.0
 11
-21.32369931125734
 21
14.92250016016737
 31
0.0
  0
LINE
  5
6C
102
{ACAD_REACTORS
330
A5
102
}
330
47
100
AcDbEntity
  8
1
  6
Continuous
 62
     7
100
AcDbLine
 10
-17.15146632821401
 20
15.86370041827229
 30
0.0
 11
-18.32369931125734
 21
13.83333333333326
 31
0.0
  0
LINE
  5
6D
102
{ACAD_REACTORS
330
A5
102
}
330
47
100
AcDbEntity
  8
1
  6
Continuous
 62
     7
100
AcDbLine
 10
-16.65703264459071
 20
9.3082690706018
 30
0.0
 11
-16.65703264459071
 21
15.73121731203457
 31
0.0
  0
LINE
  5
6E
102
{ACAD_REACTORS
330
A5
102
}
330
47
100
AcDbEntity
  8
1
  6
Continuous
 62
     7
100
AcDbLine
 10
-17.32369931125734
 20
12.5
 30
0.0
 11
-17.32369931125734
 21
9.3082690706018
 31
0.0
  0
LINE
  5
6F
102
{ACAD_REACTORS
330
A5
102
}
330
47
100
AcDbEntity
  8
1
  6
Continuous
 62
     7
100
AcDbLine
 10
-19.32369931125734
 20
10.84758507263291
 30
0.0
 11
-19.32369931125734
 21
12.5
 31
0.0
  0
LINE
  5
70
102
{ACAD_REACTORS
330
A5
102
}
330
47
100
AcDbEntity
  8
1
  6
Continuous
 62
     7
100
AcDbLine
 10
-19.99036597792409
 20
12.5
 30
0.0
 11
-19.99036597792409
 21
10.84758507263291
 31
0.0
  0
LINE
  5
71
102
{ACAD_REACTORS
330
A5
102
}
330
47
100
AcDbEntity
  8
1
  6
Continuous
 62
     7
100
AcDbLine
 10
-19.49593229430062
 20
15.86370041827229
 30
0.0
 11
-18.32369931125734
 21
13.83333333333326
 31
0.0
  0
LINE
  5
72
102
{ACAD_REACTORS
330
A5
102
}
330
47
100
AcDbEntity
  8
1
  6
Continuous
 62
     7
100
AcDbLine
 10
-19.99036597792409
 20
12.5
 30
0.0
 11
-19.99036597792409
 21
15.73121731203457
 31
0.0
  0
LINE
  5
73
330
47
100
AcDbEntity
  8
1
  6
Continuous
 62
     7
100
AcDbLine
 10
-18.32369931125734
 20
7.5
 30
0.0
 11
-26.74013458639885
 21
12.35563573565855
 31
0.0
  0
LINE
  5
74
330
47
100
AcDbEntity
  8
1
  6
Continuous
 62
     7
100
AcDbLine
 10
-9.90726403611583
 20
12.35563573565855
 30
0.0
 11
-18.32369931125734
 21
7.5
 31
0.0
  0
LINE
  5
75
330
47
100
AcDbEntity
  8
1
  6
Continuous
 62
     7
100
AcDbLine
 10
-18.32369931125734
 20
17.5
 30
0.0
 11
-9.90726403611583
 21
12.64436426434133
 31
0.0
  0
LINE
  5
76
330
47
100
AcDbEntity
  8
1
  6
Continuous
 62
     7
100
AcDbLine
 10
-26.74013458639885
 20
12.64436426434133
 30
0.0
 11
-18.32369931125734
 21
17.5
 31
0.0
  0
LINE
  5
77
102
{ACAD_REACTORS
330
A5
102
}
330
47
100
AcDbEntity
  8
1
  6
Continuous
 62
     7
100
AcDbLine
 10
-19.32369931125734
 20
14.23205080756884
 30
0.0
 11
-19.32369931125734
 21
12.5
 31
0.0
  0
LINE
  5
78
102
{ACAD_REACTORS
330
A5
102
}
330
47
100
AcDbEntity
  8
1
  6
Continuous
 62
     7
100
AcDbLine
 10
-18.46803687855478
 20
12.75
 30
0.0
 11
-19.32369931125734
 21
14.23205080756884
 31
0.0
  0
LINE
  5
79
102
{ACAD_REACTORS
330
A5
102
}
330
47
100
AcDbEntity
  8
1
  6
Continuous
 62
     7
100
AcDbLine
 10
-17.32369931125734
 20
14.23205080756884
 30
0.0
 11
-18.1793617439599
 21
12.75
 31
0.0
  0
LINE
  5
7A
102
{ACAD_REACTORS
330
A5
102
}
330
47
100
AcDbEntity
  8
1
  6
Continuous
 62
     7
100
AcDbLine
 10
-17.32369931125734
 20
12.5
 30
0.0
 11
-17.32369931125734
 21
14.23205080756884
 31
0.0
  0
LINE
  5
7B
102
{ACAD_REACTORS
330
A2
102
}
330
47
100
AcDbEntity
  8
1
  6
Continuous
 62
     7
100
AcDbLine
 10
-15.99036597792392
 20
10.07749983983263
 30
0.0
 11
-15.99036597792392
 21
14.92250016016737
 31
0.0
  0
LINE
  5
7C
330
47
100
AcDbEntity
  8
1
  6
Continuous
 62
     7
100
AcDbLine
 10
-189.0
 20
292.0000000000001
 30
0.0
 11
-189.0
 21
4.99999999999989
 31
0.0
  0
LINE
  5
7D
330
47
100
AcDbEntity
  8
1
  6
Continuous
 62
     7
100
AcDbLine
 10
-5.0
 20
292.0000000000001
 30
0.0
 11
-189.0
 21
292.0000000000001
 31
0.0
  0
LINE
  5
7E
330
47
100
AcDbEntity
  8
1
  6
Continuous
 62
     7
100
AcDbLine
 10
-5.0
 20
4.99999999999989
 30
0.0
 11
-5.0
 21
292.0000000000001
 31
0.0
  0
LINE
  5
7F
330
47
100
AcDbEntity
  8
1
  6
Continuous
 62
     7
100
AcDbLine
 10
0.0
 20
297.0000000000001
 30
0.0
 11
-210.0000000000001
 21
297.0000000000001
 31
0.0
  0
LINE
  5
80
330
47
100
AcDbEntity
  8
1
  6
Continuous
 62
     7
100
AcDbLine
 10
-210.0000000000001
 20
297.0000000000001
 30
0.0
 11
-210.0000000000001
 21
0.0
 31
0.0
  0
LINE
  5
81
330
47
100
AcDbEntity
  8
1
  6
Continuous
 62
     7
100
AcDbLine
 10
-210.0000000000001
 20
0.0
 30
0.0
 11
0.0
 21
0.0
 31
0.0
  0
LINE
  5
82
330
47
100
AcDbEntity
  8
1
  6
Continuous
 62
     7
100
AcDbLine
 10
0.0
 20
0.0
 30
0.0
 11
0.0
 21
297.0000000000001
 31
0.0
  0
LINE
  5
83
330
47
100
AcDbEntity
  8
1
  6
Continuous
 62
     7
100
AcDbLine
 10
-210.0000000000001
 20
148.4999999999998
 30
0.0
 11
-195.0000000000001
 21
148.4999999999998
 31
0.0
  0
LINE
  5
84
330
47
100
AcDbEntity
  8
1
  6
Continuous
 62
     7
100
AcDbLine
 10
-189.0
 20
9.99999999999986
 30
0.0
 11
-159.0
 21
9.99999999999986
 31
0.0
  0
LINE
  5
85
330
47
100
AcDbEntity
  8
1
  6
Continuous
 62
     7
100
AcDbLine
 10
-159.0
 20
20.0
 30
0.0
 11
-159.0
 21
5.0
 31
0.0
  0
LINE
  5
86
330
47
100
AcDbEntity
  8
1
  6
Continuous
 62
     7
100
AcDbLine
 10
-31.6473986225146
 20
20.0
 30
0.0
 11
-31.6473986225146
 21
5.0
 31
0.0
  0
LINE
  5
87
330
47
100
AcDbEntity
  8
1
  6
Continuous
 62
     7
100
AcDbLine
 10
-48.99999999999997
 20
20.0
 30
0.0
 11
-48.99999999999997
 21
5.0
 31
0.0
  0
LINE
  5
88
330
47
100
AcDbEntity
  8
1
  6
Continuous
 62
     7
100
AcDbLine
 10
-189.0
 20
20.0
 30
0.0
 11
-189.0
 21
4.99999999999989
 31
0.0
  0
LINE
  5
89
330
47
100
AcDbEntity
  8
1
  6
Continuous
 62
     7
100
AcDbLine
 10
-189.0
 20
14.99999999999989
 30
0.0
 11
-159.0
 21
14.99999999999989
 31
0.0
  0
ARC
  5
8A
102
{ACAD_REACTORS
330
A2
102
}
330
47
100
AcDbEntity
  8
1
  6
Continuous
 62
     7
100
AcDbCircle
 10
-14.32369931125729
 20
10.84673060906323
 30
0.0
 40
0.3333333333333198
100
AcDbArc
 50
299.9816393688342
 51
119.9816393688397
  0
ARC
  5
8B
102
{ACAD_REACTORS
330
A2
102
}
330
47
100
AcDbEntity
  8
1
  6
Continuous
 62
     7
100
AcDbCircle
 10
-14.32369931125729
 20
12.5
 30
0.0
 40
0.3333333333333695
100
AcDbArc
 50
270.0
 51
90.0
  0
ARC
  5
8C
102
{ACAD_REACTORS
330
A2
102
}
330
47
100
AcDbEntity
  8
1
  6
Continuous
 62
     7
100
AcDbCircle
 10
-14.32369931125729
 20
14.15326939093666
 30
0.0
 40
0.333333333333372
100
AcDbArc
 50
240.0183606311508
 51
60.01836063115558
  0
ARC
  5
8D
102
{ACAD_REACTORS
330
A3
102
}
330
47
100
AcDbEntity
  8
1
  6
Continuous
 62
     7
100
AcDbCircle
 10
-22.32369931125734
 20
10.84673060906323
 30
0.0
 40
0.3333333333333712
100
AcDbArc
 50
180.0
 51
0.0
  0
ARC
  5
8E
102
{ACAD_REACTORS
330
A3
102
}
330
47
100
AcDbEntity
  8
1
  6
Continuous
 62
     7
100
AcDbCircle
 10
-22.32369931125734
 20
14.15326939093666
 30
0.0
 40
0.3333333333332504
100
AcDbArc
 50
0.0
 51
180.0
  0
ARC
  5
8F
102
{ACAD_REACTORS
330
A4
102
}
330
47
100
AcDbEntity
  8
1
  6
Continuous
 62
     7
100
AcDbCircle
 10
-18.65703264459071
 20
8.7313459936787
 30
0.0
 40
0.333333333333346
100
AcDbArc
 50
240.0183606311568
 51
60.01836063115043
  0
ARC
  5
90
102
{ACAD_REACTORS
330
A4
102
}
330
47
100
AcDbEntity
  8
1
  6
Continuous
 62
     7
100
AcDbCircle
 10
-20.99036597792409
 20
14.92250016016737
 30
0.0
 40
0.3333333333333783
100
AcDbArc
 50
0.0
 51
180.0
  0
ARC
  5
91
102
{ACAD_REACTORS
330
A5
102
}
330
47
100
AcDbEntity
  8
1
  6
Continuous
 62
     7
100
AcDbCircle
 10
-16.92199885706597
 20
15.73121731203457
 30
0.0
 40
0.2649662124752581
100
AcDbArc
 50
0.0
 51
149.9999999999746
  0
ARC
  5
92
102
{ACAD_REACTORS
330
A5
102
}
330
47
100
AcDbEntity
  8
1
  6
Continuous
 62
     7
100
AcDbCircle
 10
-16.99036597792392
 20
9.3082690706018
 30
0.0
 40
0.333333333333421
100
AcDbArc
 50
180.0
 51
0.0
  0
ARC
  5
93
102
{ACAD_REACTORS
330
A5
102
}
330
47
100
AcDbEntity
  8
1
  6
Continuous
 62
     7
100
AcDbCircle
 10
-19.65703264459071
 20
10.84758507263291
 30
0.0
 40
0.3333333333333783
100
AcDbArc
 50
180.0
 51
0.0
  0
ARC
  5
94
102
{ACAD_REACTORS
330
A5
102
}
330
47
100
AcDbEntity
  8
1
  6
Continuous
 62
     7
100
AcDbCircle
 10
-19.72539976544871
 20
15.73121731203457
 30
0.0
 40
0.2649662124752792
100
AcDbArc
 50
30.00000000001998
 51
180.0
  0
ARC
  5
95
102
{ACAD_REACTORS
330
A2
102
}
330
47
100
AcDbEntity
  8
1
  6
Continuous
 62
     7
100
AcDbCircle
 10
-15.65703264459071
 20
10.07749983983263
 30
0.0
 40
0.3333333333332096
100
AcDbArc
 50
180.0
 51
299.9816393688492
  0
ARC
  5
96
102
{ACAD_REACTORS
330
A2
102
}
330
47
100
AcDbEntity
  8
1
  6
Continuous
 62
     7
100
AcDbCircle
 10
-15.65703264459071
 20
14.92250016016737
 30
0.0
 40
0.3333333333333704
100
AcDbArc
 50
60.01836063115073
 51
180.0
  0
ARC
  5
97
330
47
100
AcDbEntity
  8
1
  6
Continuous
 62
     7
100
AcDbCircle
 10
-9.99055111169739
 20
12.5
 30
0.0
 40
0.1666666666666586
100
AcDbArc
 50
299.9816393688334
 51
60.01836063114615
  0
ARC
  5
98
330
47
100
AcDbEntity
  8
1
  6
Continuous
 62
     7
100
AcDbCircle
 10
-26.65684751081724
 20
12.5
 30
0.0
 40
0.1666666666665839
100
AcDbArc
 50
119.9816393688708
 51
240.0183606311496
  0
ARC
  5
99
102
{ACAD_REACTORS
330
A4
102
}
330
47
100
AcDbEntity
  8
1
  6
Continuous
 62
     7
100
AcDbCircle
 10
-20.65703264459071
 20
10.2700211480327
 30
0.0
 40
0.6666666666666288
100
AcDbArc
 50
180.0000000000104
 51
240.0183606311575
  0
ARC
  5
9A
102
{ACAD_REACTORS
330
A5
102
}
330
47
100
AcDbEntity
  8
1
  6
Continuous
 62
     7
100
AcDbCircle
 10
-18.32369931125734
 20
12.83333333333326
 30
0.0
 40
0.1666666666666597
100
AcDbArc
 50
209.999999999972
 51
330.000000000028
  0
MTEXT
  5
9C
330
47
100
AcDbEntity
  8
1
 62
     7
100
AcDbMText
 10
-40.32369931125729
 20
16.26063942075598
 30
0.0
 40
3.0
 41
0.0
 71
     5
 72
     1
  1
Scale
  7
CONVERTER_11
 73
     1
 44
1.32052821128451
  0
MTEXT
  5
9D
330
47
100
AcDbEntity
  8
1
 62
     7
100
AcDbMText
 10
-188.0
 20
7.49999999999986
 30
0.0
 40
3.0
 41
0.0
 71
     4
 72
     1
  1
Sign.
  7
CONVERTER_11
 73
     1
 44
1.32052821128451
  0
MTEXT
  5
9E
330
47
100
AcDbEntity
  8
1
 62
     7
100
AcDbMText
 10
-188.0
 20
12.49999999999986
 30
0.0
 40
3.0
 41
0.0
 71
     4
 72
     1
  1
Date
  7
CONVERTER_11
 73
     1
 44
1.32052821128451
  0
MTEXT
  5
9F
330
47
100
AcDbEntity
  8
1
 62
     7
100
AcDbMText
 10
-194.0000000000001
 20
151.4999999999998
 30
0.0
 40
4.0
 41
0.0
 71
     5
 72
     1
  1
Diritti riservati      All rights reserved
  7
CONVERTER_11
 11
0.0
 21
1.0
 31
0.0
 73
     1
 44
1.32052821128451
  0
MTEXT
  5
A1
330
47
100
AcDbEntity
  8
1
 62
     7
100
AcDbMText
 10
-174.0
 20
17.49999999999994
 30
0.0
 40
2.5
 41
0.0
 71
     5
 72
     1
  1
dimensions in mm
  7
CONVERTER_12
 73
     1
 44
0.60024009603842
  0
HATCH
  5
A2
330
47
100
AcDbEntity
  8
1
  6
Continuous
 62
     7
100
AcDbHatch
 10
0.0
 20
0.0
 30
0.0
210
0.0
220
0.0
230
1.0
  2
SOLID
 70
     1
 71
     1
 91
        1
 92
        1
 93
       14
 72
     2
 10
-15.65703264459071
 20
14.92250016016737
 40
0.3333333333333704
 50
60.01836063115073
 51
180.0
 73
     1
 72
     1
 10
-15.99036597792392
 20
14.92250016016737
 11
-15.99036597792392
 21
10.07749983983263
 72
     2
 10
-15.65703264459071
 20
10.07749983983263
 40
0.3333333333332096
 50
180.0
 51
299.9816393688492
 73
     1
 72
     1
 10
-15.4904584934275
 20
9.78877131114973
 11
-14.15712516009418
 21
10.55800208038033
 72
     2
 10
-14.32369931125729
 20
10.84673060906323
 40
0.3333333333333198
 50
299.9816393688342
 51
479.9816393688396
 73
     1
 72
     1
 10
-14.4902734624205
 20
11.13545913774624
 11
-15.32369931125729
 21
10.65463653264794
 72
     1
 10
-15.32369931125729
 20
10.65463653264794
 11
-15.32369931125729
 21
12.16666666666663
 72
     1
 10
-15.32369931125729
 20
12.16666666666663
 11
-14.32369931125729
 21
12.16666666666663
 72
     2
 10
-14.32369931125729
 20
12.5
 40
0.3333333333333695
 50
270.0
 51
450.0
 73
     1
 72
     1
 10
-14.32369931125729
 20
12.83333333333326
 11
-15.32369931125729
 21
12.83333333333326
 72
     1
 10
-15.32369931125729
 20
12.83333333333326
 11
-15.32369931125729
 21
14.34536346735195
 72
     1
 10
-15.32369931125729
 20
14.34536346735195
 11
-14.4902734624205
 21
13.86454086225376
 72
     2
 10
-14.32369931125729
 20
14.15326939093666
 40
0.333333333333372
 50
240.0183606311508
 51
420.0183606311556
 73
     1
 72
     1
 10
-14.15712516009418
 20
14.44199791961944
 11
-15.4904584934275
 21
15.21122868885027
 97
       14
330
8C
330
63
330
62
330
61
330
8B
330
60
330
5F
330
5E
330
8A
330
5D
330
95
330
7B
330
96
330
64
 75
     0
 76
     1
 98
        1
 10
0.0
 20
0.0
  0
HATCH
  5
A3
330
47
100
AcDbEntity
  8
1
  6
Continuous
 62
     7
100
AcDbHatch
 10
0.0
 20
0.0
 30
0.0
210
0.0
220
0.0
230
1.0
  2
SOLID
 70
     1
 71
     1
 91
        1
 92
        1
 93
        5
 72
     2
 10
-22.32369931125734
 20
14.15326939093666
 40
0.3333333333332504
 50
0.0
 51
180.0
 73
     1
 72
     1
 10
-22.65703264459071
 20
14.15326939093666
 11
-22.65703264459071
 21
10.84673060906323
 72
     2
 10
-22.32369931125734
 20
10.84673060906323
 40
0.3333333333333712
 50
180.0
 51
360.0
 73
     1
 72
     1
 10
-21.99036597792409
 20
10.84673060906323
 11
-21.99036597792409
 21
11.0392519172633
 72
     1
 10
-21.99036597792409
 20
11.0392519172633
 11
-21.99036597792409
 21
14.15326939093666
 97
        5
330
8E
330
65
330
8D
330
66
330
67
 75
     0
 76
     1
 98
        1
 10
0.0
 20
0.0
  0
HATCH
  5
A4
330
47
100
AcDbEntity
  8
1
  6
Continuous
 62
     7
100
AcDbHatch
 10
0.0
 20
0.0
 30
0.0
210
0.0
220
0.0
230
1.0
  2
SOLID
 70
     1
 71
     1
 91
        1
 92
        1
 93
        7
 72
     2
 10
-20.99036597792409
 20
14.92250016016737
 40
0.3333333333333783
 50
0.0
 51
180.0
 73
     1
 72
     1
 10
-21.32369931125734
 20
14.92250016016737
 11
-21.32369931125734
 21
10.27002114803258
 72
     2
 10
-20.65703264459071
 20
10.2700211480327
 40
0.6666666666666288
 50
180.0000000000104
 51
240.0183606311575
 73
     1
 72
     1
 10
-20.99018094691704
 20
9.692564090666906
 11
-18.82360679575388
 21
8.442617464995806
 72
     2
 10
-18.65703264459071
 20
8.731345993678701
 40
0.333333333333346
 50
240.0183606311568
 51
420.0183606311505
 73
     1
 72
     1
 10
-18.4904584934275
 20
9.020074522361597
 11
-20.65703264459071
 21
10.2700211480327
 72
     1
 10
-20.65703264459071
 20
10.2700211480327
 11
-20.65703264459071
 21
14.92250016016737
 97
        7
330
90
330
6B
330
99
330
68
330
8F
330
69
330
6A
 75
     0
 76
     1
 98
        1
 10
0.0
 20
0.0
  0
HATCH
  5
A5
330
47
100
AcDbEntity
  8
1
  6
Continuous
 62
     7
100
AcDbHatch
 10
0.0
 20
0.0
 30
0.0
210
0.0
220
0.0
230
1.0
  2
SOLID
 70
     1
 71
     1
 91
        1
 92
        1
 93
       16
 72
     2
 10
-16.92199885706597
 20
15.73121731203457
 40
0.2649662124752581
 50
210.0000000000254
 51
360.0
 73
     0
 72
     1
 10
-16.65703264459071
 20
15.73121731203457
 11
-16.65703264459071
 21
9.308269070601796
 72
     2
 10
-16.99036597792392
 20
9.308269070601796
 40
0.333333333333421
 50
0.0
 51
180.0
 73
     0
 72
     1
 10
-17.32369931125734
 20
9.308269070601796
 11
-17.32369931125734
 21
12.5
 72
     1
 10
-17.32369931125734
 20
12.5
 11
-17.32369931125734
 21
14.23205080756884
 72
     1
 10
-17.32369931125734
 20
14.23205080756884
 11
-18.1793617439599
 21
12.75
 72
     2
 10
-18.32369931125734
 20
12.83333333333326
 40
0.1666666666666597
 50
29.99999999997198
 51
150.000000000028
 73
     0
 72
     1
 10
-18.46803687855478
 20
12.75
 11
-19.32369931125734
 21
14.23205080756884
 72
     1
 10
-19.32369931125734
 20
14.23205080756884
 11
-19.32369931125734
 21
12.5
 72
     1
 10
-19.32369931125734
 20
12.5
 11
-19.32369931125734
 21
10.84758507263291
 72
     2
 10
-19.65703264459071
 20
10.84758507263291
 40
0.3333333333333783
 50
0.0
 51
180.0
 73
     0
 72
     1
 10
-19.99036597792409
 20
10.84758507263291
 11
-19.99036597792409
 21
12.5
 72
     1
 10
-19.99036597792409
 20
12.5
 11
-19.99036597792409
 21
15.73121731203457
 72
     2
 10
-19.72539976544871
 20
15.73121731203457
 40
0.2649662124752792
 50
180.0
 51
329.99999999998
 73
     0
 72
     1
 10
-19.49593229430062
 20
15.86370041827229
 11
-18.32369931125734
 21
13.83333333333326
 72
     1
 10
-18.32369931125734
 20
13.83333333333326
 11
-17.15146632821401
 21
15.86370041827229
 97
       16
330
71
330
94
330
72
330
70
330
93
330
6F
330
77
330
78
330
9A
330
79
330
7A
330
6E
330
92
330
6D
330
91
330
6C
 75
     0
 76
     1
 98
        1
 10
0.0
 20
0.0
  0
ENDBLK
  5
49
330
47
100
AcDbEntity
  8
0
100
AcDbBlockEnd
  0
BLOCK
  5
4C
330
4A
100
AcDbEntity
  8
0
100
AcDbBlockBegin
  2
A4
 70
     0
 10
0.0
 20
0.0
 30
0.0
  3
A4
  1

  0
INSERT
  5
4B
330
4A
100
AcDbEntity
  8
1
100
AcDbBlockReference
  2
_formato_A4
 10
0.0
 20
0.0
 30
0.0
 41
0.5
 42
0.5
 43
0.5
  0
ENDBLK
  5
4D
330
4A
100
AcDbEntity
  8
0
100
AcDbBlockEnd
  0
BLOCK
  5
104
330
FD
100
AcDbEntity
  8
0
100
AcDbBlockBegin
  2
*D3
 70
     1
 10
0.0
 20
0.0
 30
0.0
  3
*D3
  1

  0
LINE
  5
FE
330
FD
100
AcDbEntity
  8
1
  6
Continuous
 62
     2
100
AcDbLine
 10
-52.0338664848185
 20
134.192638126424
 30
0.0
 11
-48.49999999999999
 21
134.192638126424
 31
0.0
  0
LINE
  5
FF
330
FD
100
AcDbEntity
  8
1
  6
Continuous
 62
     2
100
AcDbLine
 10
-48.49999999999999
 20
134.192638126424
 30
0.0
 11
-40.99999999999999
 21
134.192638126424
 31
0.0
  0
LINE
  5
100
330
FD
100
AcDbEntity
  8
1
  6
Continuous
 62
     2
100
AcDbLine
 10
-40.99999999999999
 20
129.2473158860495
 30
0.0
 11
-40.99999999999999
 21
134.692638126424
 31
0.0
  0
SOLID
  5
101
330
FD
100
AcDbEntity
  8
1
 62
     2
100
AcDbTrace
 10
-42.49999999999999
 20
133.9951593800429
 30
0.0
 11
-42.49999999999999
 21
134.3901168728051
 31
0.0
 12
-40.99999999999999
 22
134.192638126424
 32
0.0
 13
-40.99999999999999
 23
134.192638126424
 33
0.0
  0
MTEXT
  5
103
330
FD
100
AcDbEntity
  8
1
 62
     4
100
AcDbMText
 10
-51.61386648481489
 20
135.1926351448199
 30
0.0
 40
1.5
 41
0.0
 71
     7
 72
     1
  1
\C4;\U+00f8\C4;15
  7
CONVERTER_14
 11
0.9999999999970619
 21
2.424068405545306E-6
 31
0.0
 73
     1
 44
0.60024009603842
  0
ENDBLK
  5
105
330
FD
100
AcDbEntity
  8
0
100
AcDbBlockEnd
  0
BLOCK
  5
10E
330
107
100
AcDbEntity
  8
0
100
AcDbBlockBegin
  2
*D4
 70
     1
 10
0.0
 20
0.0
 30
0.0
  3
*D4
  1

  0
LINE
  5
108
330
107
100
AcDbEntity
  8
1
  6
Continuous
 62
     2
100
AcDbLine
 10
-54.74999999999999
 20
94.40289153853539
 30
0.0
 11
-42.24999999999999
 21
94.40289153853539
 31
0.0
  0
LINE
  5
109
330
107
100
AcDbEntity
  8
1
  6
Continuous
 62
     2
100
AcDbLine
 10
-42.24999999999999
 20
87.47789153853539
 30
0.0
 11
-42.24999999999999
 21
94.90289153853539
 31
0.0
  0
LINE
  5
10A
330
107
100
AcDbEntity
  8
1
  6
Continuous
 62
     2
100
AcDbLine
 10
-54.74999999999999
 20
87.47789153853539
 30
0.0
 11
-54.74999999999999
 21
94.90289153853539
 31
0.0
  0
SOLID
  5
10B
330
107
100
AcDbEntity
  8
1
 62
     2
100
AcDbTrace
 10
-53.24999999999999
 20
94.60037028491648
 30
0.0
 11
-53.24999999999999
 21
94.20541279215429
 31
0.0
 12
-54.74999999999999
 22
94.40289153853539
 32
0.0
 13
-54.74999999999999
 23
94.40289153853539
 33
0.0
  0
SOLID
  5
10C
330
107
100
AcDbEntity
  8
1
 62
     2
100
AcDbTrace
 10
-43.74999999999999
 20
94.20541279215429
 30
0.0
 11
-43.74999999999999
 21
94.60037028491648
 31
0.0
 12
-42.24999999999999
 22
94.40289153853539
 32
0.0
 13
-42.24999999999999
 23
94.40289153853539
 33
0.0
  0
MTEXT
  5
10D
330
107
100
AcDbEntity
  8
1
 62
     4
100
AcDbMText
 10
-50.74249999999638
 20
95.55288855693125
 30
0.0
 40
1.5
 41
0.0
 71
     7
 72
     1
  1
\C4;\U+00f8\C4;12,5
  7
CONVERTER_14
 11
0.9999999999970619
 21
2.424068405545306E-6
 31
0.0
 73
     1
 44
0.60024009603842
  0
ENDBLK
  5
10F
330
107
100
AcDbEntity
  8
0
100
AcDbBlockEnd
  0
BLOCK
  5
119
330
112
100
AcDbEntity
  8
0
100
AcDbBlockBegin
  2
*D5
 70
     1
 10
0.0
 20
0.0
 30
0.0
  3
*D5
  1

  0
LINE
  5
113
330
112
100
AcDbEntity
  8
1
  6
Continuous
 62
     2
100
AcDbLine
 10
-53.49999999999999
 20
76.9832649546342
 30
0.0
 11
-43.49999999999999
 21
76.9832649546342
 31
0.0
  0
LINE
  5
114
330
112
100
AcDbEntity
  8
1
  6
Continuous
 62
     2
100
AcDbLine
 10
-43.49999999999999
 20
81.97789153853539
 30
0.0
 11
-43.49999999999999
 21
76.4832649546342
 31
0.0
  0
LINE
  5
115
330
112
100
AcDbEntity
  8
1
  6
Continuous
 62
     2
100
AcDbLine
 10
-53.49999999999999
 20
81.97789153853539
 30
0.0
 11
-53.49999999999999
 21
76.4832649546342
 31
0.0
  0
SOLID
  5
116
330
112
100
AcDbEntity
  8
1
 62
     2
100
AcDbTrace
 10
-51.99999999999999
 20
77.18074370101529
 30
0.0
 11
-51.99999999999999
 21
76.7857862082531
 31
0.0
 12
-53.49999999999999
 22
76.9832649546342
 32
0.0
 13
-53.49999999999999
 23
76.9832649546342
 33
0.0
  0
SOLID
  5
117
330
112
100
AcDbEntity
  8
1
 62
     2
100
AcDbTrace
 10
-44.99999999999999
 20
76.7857862082531
 30
0.0
 11
-44.99999999999999
 21
77.18074370101529
 31
0.0
 12
-43.49999999999999
 22
76.9832649546342
 32
0.0
 13
-43.49999999999999
 23
76.9832649546342
 33
0.0
  0
MTEXT
  5
118
330
112
100
AcDbEntity
  8
1
 62
     4
100
AcDbMText
 10
-49.80499999999638
 20
77.98326197303005
 30
0.0
 40
1.5
 41
0.0
 71
     7
 72
     1
  1
\C4;\U+00f8\C4;10
  7
CONVERTER_14
 11
0.9999999999970619
 21
2.424068405545306E-6
 31
0.0
 73
     1
 44
0.60024009603842
  0
ENDBLK
  5
11A
330
112
100
AcDbEntity
  8
0
100
AcDbBlockEnd
  0
BLOCK
  5
124
330
11D
100
AcDbEntity
  8
0
100
AcDbBlockBegin
  2
*D6
 70
     1
 10
0.0
 20
0.0
 30
0.0
  3
*D6
  1

  0
LINE
  5
11E
330
11D
100
AcDbEntity
  8
1
  6
Continuous
 62
     2
100
AcDbLine
 10
-52.24999999999999
 20
89.29135625772639
 30
0.0
 11
-44.74999999999999
 21
89.29135625772639
 31
0.0
  0
LINE
  5
11F
330
11D
100
AcDbEntity
  8
1
  6
Continuous
 62
     2
100
AcDbLine
 10
-44.74999999999999
 20
87.47789153853539
 30
0.0
 11
-44.74999999999999
 21
89.79135625772639
 31
0.0
  0
LINE
  5
120
330
11D
100
AcDbEntity
  8
1
  6
Continuous
 62
     2
100
AcDbLine
 10
-52.24999999999999
 20
87.47789153853539
 30
0.0
 11
-52.24999999999999
 21
89.79135625772639
 31
0.0
  0
SOLID
  5
121
330
11D
100
AcDbEntity
  8
1
 62
     2
100
AcDbTrace
 10
-50.74999999999999
 20
89.48883500410749
 30
0.0
 11
-50.74999999999999
 21
89.0938775113453
 31
0.0
 12
-52.24999999999999
 22
89.29135625772639
 32
0.0
 13
-52.24999999999999
 23
89.29135625772639
 33
0.0
  0
SOLID
  5
122
330
11D
100
AcDbEntity
  8
1
 62
     2
100
AcDbTrace
 10
-46.24999999999999
 20
89.0938775113453
 30
0.0
 11
-46.24999999999999
 21
89.48883500410749
 31
0.0
 12
-44.74999999999999
 22
89.29135625772639
 32
0.0
 13
-44.74999999999999
 23
89.29135625772639
 33
0.0
  0
MTEXT
  5
123
330
11D
100
AcDbEntity
  8
1
 62
     4
100
AcDbMText
 10
-50.29249999999638
 20
90.44135327612226
 30
0.0
 40
1.5
 41
0.0
 71
     7
 72
     1
  1
\C4;\U+00f8\C4;7,5
  7
CONVERTER_14
 11
0.9999999999970619
 21
2.424068405545306E-6
 31
0.0
 73
     1
 44
0.60024009603842
  0
ENDBLK
  5
125
330
11D
100
AcDbEntity
  8
0
100
AcDbBlockEnd
  0
BLOCK
  5
131
330
128
100
AcDbEntity
  8
0
100
AcDbBlockBegin
  2
*D7
 70
     1
 10
0.0
 20
0.0
 30
0.0
  3
*D7
  1

  0
LINE
  5
129
330
128
100
AcDbEntity
  8
1
  6
Continuous
 62
     2
100
AcDbLine
 10
-65.29985755320419
 20
69.42789153853538
 30
0.0
 11
-65.29985755320419
 21
66.42789153853538
 31
0.0
  0
LINE
  5
12A
330
128
100
AcDbEntity
  8
1
  6
Continuous
 62
     2
100
AcDbLine
 10
-65.29985755320419
 20
70.22789153853539
 30
0.0
 11
-65.29985755320419
 21
69.42789153853538
 31
0.0
  0
LINE
  5
12B
330
128
100
AcDbEntity
  8
1
  6
Continuous
 62
     2
100
AcDbLine
 10
-65.29985755320419
 20
73.22789153853539
 30
0.0
 11
-65.29985755320419
 21
70.22789153853539
 31
0.0
  0
LINE
  5
12C
330
128
100
AcDbEntity
  8
1
  6
Continuous
 62
     2
100
AcDbLine
 10
-57.24999999999999
 20
69.42789153853538
 30
0.0
 11
-65.79985755320419
 21
69.42789153853538
 31
0.0
  0
LINE
  5
12D
330
128
100
AcDbEntity
  8
1
  6
Continuous
 62
     2
100
AcDbLine
 10
-57.24999999999999
 20
70.22789153853539
 30
0.0
 11
-65.79985755320419
 21
70.22789153853539
 31
0.0
  0
SOLID
  5
12E
330
128
100
AcDbEntity
  8
1
 62
     2
100
AcDbTrace
 10
-65.49733629958529
 20
71.72789153853539
 30
0.0
 11
-65.1023788068231
 21
71.72789153853539
 31
0.0
 12
-65.29985755320419
 22
70.22789153853539
 32
0.0
 13
-65.29985755320419
 23
70.22789153853539
 33
0.0
  0
SOLID
  5
12F
330
128
100
AcDbEntity
  8
1
 62
     2
100
AcDbTrace
 10
-65.1023788068231
 20
67.92789153853538
 30
0.0
 11
-65.49733629958529
 21
67.92789153853538
 31
0.0
 12
-65.29985755320419
 22
69.42789153853538
 32
0.0
 13
-65.29985755320419
 23
69.42789153853538
 33
0.0
  0
MTEXT
  5
130
330
128
100
AcDbEntity
  8
1
 62
     4
100
AcDbMText
 10
-66.4498575532042
 20
68.44039153853538
 30
0.0
 40
1.5
 41
0.0
 71
     7
 72
     1
  1
0,8
  7
CONVERTER_14
 11
0.0
 21
1.0
 31
0.0
 73
     1
 44
0.60024009603842
  0
ENDBLK
  5
132
330
128
100
AcDbEntity
  8
0
100
AcDbBlockEnd
  0
BLOCK
  5
13C
330
135
100
AcDbEntity
  8
0
100
AcDbBlockBegin
  2
*D8
 70
     1
 10
0.0
 20
0.0
 30
0.0
  3
*D8
  1

  0
LINE
  5
136
330
135
100
AcDbEntity
  8
1
  6
Continuous
 62
     2
100
AcDbLine
 10
-65.2801545004875
 20
87.22789153853539
 30
0.0
 11
-65.2801545004875
 21
81.22789153853539
 31
0.0
  0
LINE
  5
137
330
135
100
AcDbEntity
  8
1
  6
Continuous
 62
     2
100
AcDbLine
 10
-56.99999999999999
 20
81.22789153853539
 30
0.0
 11
-65.7801545004875
 21
81.22789153853539
 31
0.0
  0
LINE
  5
138
330
135
100
AcDbEntity
  8
1
  6
Continuous
 62
     2
100
AcDbLine
 10
-56.99999999999999
 20
87.22789153853539
 30
0.0
 11
-65.7801545004875
 21
87.22789153853539
 31
0.0
  0
SOLID
  5
139
330
135
100
AcDbEntity
  8
1
 62
     2
100
AcDbTrace
 10
-65.0826757541064
 20
85.72789153853539
 30
0.0
 11
-65.47763324686859
 21
85.72789153853539
 31
0.0
 12
-65.2801545004875
 22
87.22789153853539
 32
0.0
 13
-65.2801545004875
 23
87.22789153853539
 33
0.0
  0
SOLID
  5
13A
330
135
100
AcDbEntity
  8
1
 62
     2
100
AcDbTrace
 10
-65.47763324686859
 20
82.72789153853539
 30
0.0
 11
-65.0826757541064
 21
82.72789153853539
 31
0.0
 12
-65.2801545004875
 22
81.22789153853539
 32
0.0
 13
-65.2801545004875
 23
81.22789153853539
 33
0.0
  0
MTEXT
  5
13B
330
135
100
AcDbEntity
  8
1
 62
     4
100
AcDbMText
 10
-66.2801545004875
 20
83.77789153853539
 30
0.0
 40
1.5
 41
0.0
 71
     7
 72
     1
  1
6
  7
CONVERTER_14
 11
0.0
 21
1.0
 31
0.0
 73
     1
 44
0.60024009603842
  0
ENDBLK
  5
13D
330
135
100
AcDbEntity
  8
0
100
AcDbBlockEnd
  0
BLOCK
  5
149
330
140
100
AcDbEntity
  8
0
100
AcDbBlockBegin
  2
*D9
 70
     1
 10
0.0
 20
0.0
 30
0.0
  3
*D9
  1

  0
LINE
  5
141
330
140
100
AcDbEntity
  8
1
  6
Continuous
 62
     2
100
AcDbLine
 10
-65.29985755320419
 20
101.2278915385354
 30
0.0
 11
-65.29985755320419
 21
98.22789153853539
 31
0.0
  0
LINE
  5
142
330
140
100
AcDbEntity
  8
1
  6
Continuous
 62
     2
100
AcDbLine
 10
-65.29985755320419
 20
102.0278915385354
 30
0.0
 11
-65.29985755320419
 21
101.2278915385354
 31
0.0
  0
LINE
  5
143
330
140
100
AcDbEntity
  8
1
  6
Continuous
 62
     2
100
AcDbLine
 10
-65.29985755320419
 20
105.0278915385354
 30
0.0
 11
-65.29985755320419
 21
102.0278915385354
 31
0.0
  0
LINE
  5
144
330
140
100
AcDbEntity
  8
1
  6
Continuous
 62
     2
100
AcDbLine
 10
-57.24999999999999
 20
101.2278915385354
 30
0.0
 11
-65.79985755320419
 21
101.2278915385354
 31
0.0
  0
LINE
  5
145
330
140
100
AcDbEntity
  8
1
  6
Continuous
 62
     2
100
AcDbLine
 10
-57.24999999999999
 20
102.0278915385354
 30
0.0
 11
-65.79985755320419
 21
102.0278915385354
 31
0.0
  0
SOLID
  5
146
330
140
100
AcDbEntity
  8
1
 62
     2
100
AcDbTrace
 10
-65.49733629958529
 20
103.5278915385354
 30
0.0
 11
-65.1023788068231
 21
103.5278915385354
 31
0.0
 12
-65.29985755320419
 22
102.0278915385354
 32
0.0
 13
-65.29985755320419
 23
102.0278915385354
 33
0.0
  0
SOLID
  5
147
330
140
100
AcDbEntity
  8
1
 62
     2
100
AcDbTrace
 10
-65.1023788068231
 20
99.72789153853539
 30
0.0
 11
-65.49733629958529
 21
99.72789153853539
 31
0.0
 12
-65.29985755320419
 22
101.2278915385354
 32
0.0
 13
-65.29985755320419
 23
101.2278915385354
 33
0.0
  0
MTEXT
  5
148
330
140
100
AcDbEntity
  8
1
 62
     4
100
AcDbMText
 10
-66.4498575532042
 20
100.2403915385354
 30
0.0
 40
1.5
 41
0.0
 71
     7
 72
     1
  1
0,8
  7
CONVERTER_14
 11
0.0
 21
1.0
 31
0.0
 73
     1
 44
0.60024009603842
  0
ENDBLK
  5
14A
330
140
100
AcDbEntity
  8
0
100
AcDbBlockEnd
  0
BLOCK
  5
154
330
14D
100
AcDbEntity
  8
0
100
AcDbBlockBegin
  2
*D10
 70
     1
 10
0.0
 20
0.0
 30
0.0
  3
*D10
  1

  0
LINE
  5
14E
330
14D
100
AcDbEntity
  8
1
  6
Continuous
 62
     2
100
AcDbLine
 10
-65.2801545004875
 20
120.9973158860495
 30
0.0
 11
-65.2801545004875
 21
126.9973158860495
 31
0.0
  0
LINE
  5
14F
330
14D
100
AcDbEntity
  8
1
  6
Continuous
 62
     2
100
AcDbLine
 10
-58.09999999999999
 20
120.9973158860495
 30
0.0
 11
-65.7801545004875
 21
120.9973158860495
 31
0.0
  0
LINE
  5
150
330
14D
100
AcDbEntity
  8
1
  6
Continuous
 62
     2
100
AcDbLine
 10
-59.49999999999999
 20
126.9973158860495
 30
0.0
 11
-65.7801545004875
 21
126.9973158860495
 31
0.0
  0
SOLID
  5
151
330
14D
100
AcDbEntity
  8
1
 62
     2
100
AcDbTrace
 10
-65.47763324686859
 20
122.4973158860495
 30
0.0
 11
-65.0826757541064
 21
122.4973158860495
 31
0.0
 12
-65.2801545004875
 22
120.9973158860495
 32
0.0
 13
-65.2801545004875
 23
120.9973158860495
 33
0.0
  0
SOLID
  5
152
330
14D
100
AcDbEntity
  8
1
 62
     2
100
AcDbTrace
 10
-65.0826757541064
 20
125.4973158860495
 30
0.0
 11
-65.47763324686859
 21
125.4973158860495
 31
0.0
 12
-65.2801545004875
 22
126.9973158860495
 32
0.0
 13
-65.2801545004875
 23
126.9973158860495
 33
0.0
  0
MTEXT
  5
153
330
14D
100
AcDbEntity
  8
1
 62
     4
100
AcDbMText
 10
-66.2801545004875
 20
123.5473158860495
 30
0.0
 40
1.5
 41
0.0
 71
     7
 72
     1
  1
6
  7
CONVERTER_14
 11
0.0
 21
1.0
 31
0.0
 73
     1
 44
0.60024009603842
  0
ENDBLK
  5
155
330
14D
100
AcDbEntity
  8
0
100
AcDbBlockEnd
  0
BLOCK
  5
15F
330
158
100
AcDbEntity
  8
0
100
AcDbBlockBegin
  2
*D11
 70
     1
 10
0.0
 20
0.0
 30
0.0
  3
*D11
  1

  0
LINE
  5
159
330
158
100
AcDbEntity
  8
1
  6
Continuous
 62
     2
100
AcDbLine
 10
-65.3805580479212
 20
58.76097355616987
 30
0.0
 11
-65.3805580479212
 21
40.76097355616987
 31
0.0
  0
LINE
  5
15A
330
158
100
AcDbEntity
  8
1
  6
Continuous
 62
     2
100
AcDbLine
 10
-53.10889894354067
 20
58.76097355616987
 30
0.0
 11
-65.8805580479212
 21
58.76097355616987
 31
0.0
  0
LINE
  5
15B
330
158
100
AcDbEntity
  8
1
  6
Continuous
 62
     2
100
AcDbLine
 10
-53.10889894354067
 20
40.76097355616987
 30
0.0
 11
-65.8805580479212
 21
40.76097355616987
 31
0.0
  0
SOLID
  5
15C
330
158
100
AcDbEntity
  8
1
 62
     2
100
AcDbTrace
 10
-65.1830793015401
 20
57.26097355616987
 30
0.0
 11
-65.57803679430229
 21
57.26097355616987
 31
0.0
 12
-65.3805580479212
 22
58.76097355616987
 32
0.0
 13
-65.3805580479212
 23
58.76097355616987
 33
0.0
  0
SOLID
  5
15D
330
158
100
AcDbEntity
  8
1
 62
     2
100
AcDbTrace
 10
-65.57803679430229
 20
42.26097355616987
 30
0.0
 11
-65.1830793015401
 21
42.26097355616987
 31
0.0
 12
-65.3805580479212
 22
40.76097355616987
 32
0.0
 13
-65.3805580479212
 23
40.76097355616987
 33
0.0
  0
MTEXT
  5
15E
330
158
100
AcDbEntity
  8
1
 62
     4
100
AcDbMText
 10
-66.3805580479212
 20
48.86097355616987
 30
0.0
 40
1.5
 41
0.0
 71
     7
 72
     1
  1
18
  7
CONVERTER_14
 11
0.0
 21
1.0
 31
0.0
 73
     1
 44
0.60024009603842
  0
ENDBLK
  5
160
330
158
100
AcDbEntity
  8
0
100
AcDbBlockEnd
  0
BLOCK
  5
16A
330
163
100
AcDbEntity
  8
0
100
AcDbBlockBegin
  2
*D12
 70
     1
 10
0.0
 20
0.0
 30
0.0
  3
*D12
  1

  0
LINE
  5
164
330
163
100
AcDbEntity
  8
1
  6
Continuous
 62
     2
100
AcDbLine
 10
-58.5
 20
33.8644083074679
 30
0.0
 11
-38.49999999999999
 21
33.8644083074679
 31
0.0
  0
LINE
  5
165
330
163
100
AcDbEntity
  8
1
  6
Continuous
 62
     2
100
AcDbLine
 10
-58.5
 20
49.51097355616988
 30
0.0
 11
-58.5
 21
33.3644083074679
 31
0.0
  0
LINE
  5
166
330
163
100
AcDbEntity
  8
1
  6
Continuous
 62
     2
100
AcDbLine
 10
-38.49999999999999
 20
49.51097355616988
 30
0.0
 11
-38.49999999999999
 21
33.3644083074679
 31
0.0
  0
SOLID
  5
167
330
163
100
AcDbEntity
  8
1
 62
     2
100
AcDbTrace
 10
-57.0
 20
34.06188705384899
 30
0.0
 11
-57.0
 21
33.6669295610868
 31
0.0
 12
-58.5
 22
33.8644083074679
 32
0.0
 13
-58.5
 23
33.8644083074679
 33
0.0
  0
SOLID
  5
168
330
163
100
AcDbEntity
  8
1
 62
     2
100
AcDbTrace
 10
-39.99999999999999
 20
33.6669295610868
 30
0.0
 11
-39.99999999999999
 21
34.06188705384899
 31
0.0
 12
-38.49999999999999
 22
33.8644083074679
 32
0.0
 13
-38.49999999999999
 23
33.8644083074679
 33
0.0
  0
MTEXT
  5
169
330
163
100
AcDbEntity
  8
1
 62
     4
100
AcDbMText
 10
-50.02999999999638
 20
34.86440532586376
 30
0.0
 40
1.5
 41
0.0
 71
     7
 72
     1
  1
\C4;\U+00f8\C4;20
  7
CONVERTER_14
 11
0.9999999999970619
 21
2.424068405545306E-6
 31
0.0
 73
     1
 44
0.60024009603842
  0
ENDBLK
  5
16B
330
163
100
AcDbEntity
  8
0
100
AcDbBlockEnd
  0
BLOCK
  5
177
330
16E
100
AcDbEntity
  8
0
100
AcDbBlockBegin
  2
*D13
 70
     1
 10
0.0
 20
0.0
 30
0.0
  3
*D13
  1

  0
LINE
  5
16F
330
16E
100
AcDbEntity
  8
1
  6
Continuous
 62
     2
100
AcDbLine
 10
-65.3058438712011
 20
132.9973158860495
 30
0.0
 11
-65.3058438712011
 21
129.9973158860495
 31
0.0
  0
LINE
  5
170
330
16E
100
AcDbEntity
  8
1
  6
Continuous
 62
     2
100
AcDbLine
 10
-65.3058438712011
 20
129.9973158860495
 30
0.0
 11
-65.3058438712011
 21
126.9973158860495
 31
0.0
  0
LINE
  5
171
330
16E
100
AcDbEntity
  8
1
  6
Continuous
 62
     2
100
AcDbLine
 10
-65.3058438712011
 20
126.9973158860495
 30
0.0
 11
-65.3058438712011
 21
123.9973158860495
 31
0.0
  0
LINE
  5
172
330
16E
100
AcDbEntity
  8
1
  6
Continuous
 62
     2
100
AcDbLine
 10
-57.74999999999999
 20
129.9973158860495
 30
0.0
 11
-65.8058438712011
 21
129.9973158860495
 31
0.0
  0
LINE
  5
173
330
16E
100
AcDbEntity
  8
1
  6
Continuous
 62
     2
100
AcDbLine
 10
-58.74999999999999
 20
126.9973158860495
 30
0.0
 11
-65.8058438712011
 21
126.9973158860495
 31
0.0
  0
SOLID
  5
174
330
16E
100
AcDbEntity
  8
1
 62
     2
100
AcDbTrace
 10
-65.5033226175822
 20
131.4973158860495
 30
0.0
 11
-65.10836512482001
 21
131.4973158860495
 31
0.0
 12
-65.3058438712011
 22
129.9973158860495
 32
0.0
 13
-65.3058438712011
 23
129.9973158860495
 33
0.0
  0
SOLID
  5
175
330
16E
100
AcDbEntity
  8
1
 62
     2
100
AcDbTrace
 10
-65.10836512482001
 20
125.4973158860495
 30
0.0
 11
-65.5033226175822
 21
125.4973158860495
 31
0.0
 12
-65.3058438712011
 22
126.9973158860495
 32
0.0
 13
-65.3058438712011
 23
126.9973158860495
 33
0.0
  0
MTEXT
  5
176
330
16E
100
AcDbEntity
  8
1
 62
     4
100
AcDbMText
 10
-66.3058438712011
 20
128.0473158860495
 30
0.0
 40
1.5
 41
0.0
 71
     7
 72
     1
  1
3
  7
CONVERTER_14
 11
0.0
 21
1.0
 31
0.0
 73
     1
 44
0.60024009603842
  0
ENDBLK
  5
178
330
16E
100
AcDbEntity
  8
0
100
AcDbBlockEnd
  0
BLOCK
  5
182
330
17B
100
AcDbEntity
  8
0
100
AcDbBlockBegin
  2
*D14
 70
     1
 10
0.0
 20
0.0
 30
0.0
  3
*D14
  1

  0
LINE
  5
17C
330
17B
100
AcDbEntity
  8
1
  6
Continuous
 62
     2
100
AcDbLine
 10
-39.19999999999997
 20
115.116547294161
 30
0.0
 11
-57.79999999999998
 21
115.116547294161
 31
0.0
  0
LINE
  5
17D
330
17B
100
AcDbEntity
  8
1
  6
Continuous
 62
     2
100
AcDbLine
 10
-39.19999999999997
 20
120.4973158860495
 30
0.0
 11
-39.19999999999997
 21
114.616547294161
 31
0.0
  0
LINE
  5
17E
330
17B
100
AcDbEntity
  8
1
  6
Continuous
 62
     2
100
AcDbLine
 10
-57.79999999999998
 20
120.4973158860495
 30
0.0
 11
-57.79999999999998
 21
114.616547294161
 31
0.0
  0
SOLID
  5
17F
330
17B
100
AcDbEntity
  8
1
 62
     2
100
AcDbTrace
 10
-40.69999999999997
 20
114.9190685477799
 30
0.0
 11
-40.69999999999997
 21
115.3140260405421
 31
0.0
 12
-39.19999999999997
 22
115.116547294161
 32
0.0
 13
-39.19999999999997
 23
115.116547294161
 33
0.0
  0
SOLID
  5
180
330
17B
100
AcDbEntity
  8
1
 62
     2
100
AcDbTrace
 10
-56.29999999999998
 20
115.3140260405421
 30
0.0
 11
-56.29999999999998
 21
114.9190685477799
 31
0.0
 12
-57.79999999999998
 22
115.116547294161
 32
0.0
 13
-57.79999999999998
 23
115.116547294161
 33
0.0
  0
MTEXT
  5
181
330
17B
100
AcDbEntity
  8
1
 62
     4
100
AcDbMText
 10
-51.04999999999997
 20
116.566547294161
 30
0.0
 40
1.5
 41
0.0
 71
     7
 72
     1
  1
Pg 11
  7
CONVERTER_14
 11
0.9999999999970619
 21
2.424068405545306E-6
 31
0.0
 73
     1
 44
0.60024009603842
  0
ENDBLK
  5
183
330
17B
100
AcDbEntity
  8
0
100
AcDbBlockEnd
  0
ENDSEC
  0
SECTION
  2
ENTITIES
  0
INSERT
  5
4E
330
1F
100
AcDbEntity
  8
0
100
AcDbBlockReference
  2
A4
 10
0.0
 20
0.0
 30
0.0
  0
LINE
  5
A6
330
1F
100
AcDbEntity
  8
1
  6
DOT_CENTER
 62
     2
100
AcDbLine
 10
-48.49999999999999
 20
32.49731588604946
 30
0.0
 11
-48.49999999999999
 21
34.08915884545288
 31
0.0
  0
LINE
  5
A7
330
1F
100
AcDbEntity
  8
1
  6
DOT_CENTER
 62
     2
100
AcDbLine
 10
-48.49999999999999
 20
75.79731588604946
 30
0.0
 11
-48.49999999999999
 21
77.38915884545288
 31
0.0
  0
LINE
  5
A8
330
1F
100
AcDbEntity
  8
1
  6
DOT_CENTER
 62
     2
100
AcDbLine
 10
-48.49999999999999
 20
93.19731588604947
 30
0.0
 11
-48.49999999999999
 21
94.78915884545289
 31
0.0
  0
LINE
  5
A9
330
1F
100
AcDbEntity
  8
1
  6
DOT_CENTER
 62
     2
100
AcDbLine
 10
-48.49999999999999
 20
80.39731588604948
 30
0.0
 11
-48.5
 21
89.48915884545286
 31
0.0
  0
LINE
  5
AA
330
1F
100
AcDbEntity
  8
1
  6
DOT_CENTER
 62
     2
100
AcDbLine
 10
-48.49999999999999
 20
112.1973158860495
 30
0.0
 11
-48.49999999999999
 21
115.4891588454529
 31
0.0
  0
LINE
  5
AB
330
1F
100
AcDbEntity
  8
1
  6
Continuous
 62
     7
100
AcDbLine
 10
-56.99999999999999
 20
70.22789153853539
 30
0.0
 11
-39.99999999999999
 21
70.22789153853539
 31
0.0
  0
LINE
  5
AC
330
1F
100
AcDbEntity
  8
1
  6
Continuous
 62
     7
100
AcDbLine
 10
-39.99999999999999
 20
70.22789153853539
 30
0.0
 11
-39.99999999999999
 21
69.42789153853538
 31
0.0
  0
LINE
  5
AD
330
1F
100
AcDbEntity
  8
1
  6
Continuous
 62
     7
100
AcDbLine
 10
-39.99999999999999
 20
69.42789153853538
 30
0.0
 11
-56.99999999999999
 21
69.42789153853538
 31
0.0
  0
LINE
  5
AE
330
1F
100
AcDbEntity
  8
1
  6
Continuous
 62
     7
100
AcDbLine
 10
-56.99999999999999
 20
69.42789153853538
 30
0.0
 11
-56.99999999999999
 21
70.22789153853539
 31
0.0
  0
LINE
  5
AF
102
{ACAD_REACTORS
330
187
102
}
330
1F
100
AcDbEntity
  8
1
  6
Continuous
 62
     7
100
AcDbLine
 10
-42.24999999999999
 20
87.22789153853539
 30
0.0
 11
-40.24999999999999
 21
87.22789153853539
 31
0.0
  0
LINE
  5
B0
330
1F
100
AcDbEntity
  8
1
  6
Continuous
 62
     7
100
AcDbLine
 10
-42.24999999999999
 20
87.22789153853539
 30
0.0
 11
-42.24999999999999
 21
82.22789153853539
 31
0.0
  0
LINE
  5
B1
102
{ACAD_REACTORS
330
187
102
}
330
1F
100
AcDbEntity
  8
1
  6
Continuous
 62
     7
100
AcDbLine
 10
-43.49999999999999
 20
87.22789153853539
 30
0.0
 11
-42.24999999999999
 21
87.22789153853539
 31
0.0
  0
LINE
  5
B2
330
1F
100
AcDbEntity
  8
1
  6
Continuous
 62
     7
100
AcDbLine
 10
-43.49999999999999
 20
87.22789153853539
 30
0.0
 11
-43.49999999999999
 21
82.22789153853539
 31
0.0
  0
LINE
  5
B3
102
{ACAD_REACTORS
330
187
102
}
330
1F
100
AcDbEntity
  8
1
  6
Continuous
 62
     7
100
AcDbLine
 10
-44.74999999999999
 20
87.22789153853539
 30
0.0
 11
-43.49999999999999
 21
87.22789153853539
 31
0.0
  0
LINE
  5
B4
330
1F
100
AcDbEntity
  8
1
  6
Continuous
 62
     7
100
AcDbLine
 10
-44.74999999999999
 20
81.22789153853539
 30
0.0
 11
-52.24999999999999
 21
81.22789153853539
 31
0.0
  0
LINE
  5
B5
102
{ACAD_REACTORS
330
187
102
}
330
1F
100
AcDbEntity
  8
1
  6
Continuous
 62
     7
100
AcDbLine
 10
-44.74999999999999
 20
87.22789153853539
 30
0.0
 11
-44.74999999999999
 21
81.22789153853539
 31
0.0
  0
LINE
  5
B6
330
1F
100
AcDbEntity
  8
1
  6
Continuous
 62
     7
100
AcDbLine
 10
-52.24999999999999
 20
87.22789153853539
 30
0.0
 11
-44.74999999999999
 21
87.22789153853539
 31
0.0
  0
LINE
  5
B7
102
{ACAD_REACTORS
330
186
102
}
330
1F
100
AcDbEntity
  8
1
  6
Continuous
 62
     7
100
AcDbLine
 10
-52.24999999999999
 20
81.22789153853539
 30
0.0
 11
-56.74999999999999
 21
81.22789153853539
 31
0.0
  0
LINE
  5
B8
102
{ACAD_REACTORS
330
186
102
}
330
1F
100
AcDbEntity
  8
1
  6
Continuous
 62
     7
100
AcDbLine
 10
-52.24999999999999
 20
87.22789153853539
 30
0.0
 11
-52.24999999999999
 21
81.22789153853539
 31
0.0
  0
LINE
  5
B9
102
{ACAD_REACTORS
330
186
102
}
330
1F
100
AcDbEntity
  8
1
  6
Continuous
 62
     7
100
AcDbLine
 10
-53.49999999999999
 20
87.22789153853539
 30
0.0
 11
-52.24999999999999
 21
87.22789153853539
 31
0.0
  0
LINE
  5
BA
330
1F
100
AcDbEntity
  8
1
  6
Continuous
 62
     7
100
AcDbLine
 10
-53.49999999999999
 20
87.22789153853539
 30
0.0
 11
-53.49999999999999
 21
82.22789153853539
 31
0.0
  0
LINE
  5
BB
102
{ACAD_REACTORS
330
186
102
}
330
1F
100
AcDbEntity
  8
1
  6
Continuous
 62
     7
100
AcDbLine
 10
-54.74999999999999
 20
87.22789153853539
 30
0.0
 11
-53.49999999999999
 21
87.22789153853539
 31
0.0
  0
LINE
  5
BC
330
1F
100
AcDbEntity
  8
1
  6
Continuous
 62
     7
100
AcDbLine
 10
-54.74999999999999
 20
87.22789153853539
 30
0.0
 11
-54.74999999999999
 21
82.22789153853539
 31
0.0
  0
LINE
  5
BD
102
{ACAD_REACTORS
330
186
102
}
330
1F
100
AcDbEntity
  8
1
  6
Continuous
 62
     7
100
AcDbLine
 10
-56.74999999999999
 20
81.22789153853539
 30
0.0
 11
-56.74999999999999
 21
87.22789153853539
 31
0.0
  0
LINE
  5
BE
102
{ACAD_REACTORS
330
187
102
}
330
1F
100
AcDbEntity
  8
1
  6
Continuous
 62
     7
100
AcDbLine
 10
-40.24999999999999
 20
81.22789153853539
 30
0.0
 11
-44.74999999999999
 21
81.22789153853539
 31
0.0
  0
LINE
  5
BF
102
{ACAD_REACTORS
330
187
102
}
330
1F
100
AcDbEntity
  8
1
  6
Continuous
 62
     7
100
AcDbLine
 10
-40.24999999999999
 20
87.22789153853539
 30
0.0
 11
-40.24999999999999
 21
81.22789153853539
 31
0.0
  0
LINE
  5
C0
102
{ACAD_REACTORS
330
186
102
}
330
1F
100
AcDbEntity
  8
1
  6
Continuous
 62
     7
100
AcDbLine
 10
-56.74999999999999
 20
87.22789153853539
 30
0.0
 11
-54.74999999999999
 21
87.22789153853539
 31
0.0
  0
LINE
  5
C1
330
1F
100
AcDbEntity
  8
1
  6
Continuous
 62
     7
100
AcDbLine
 10
-56.99999999999999
 20
101.2278915385354
 30
0.0
 11
-56.99999999999999
 21
102.0278915385354
 31
0.0
  0
LINE
  5
C2
330
1F
100
AcDbEntity
  8
1
  6
Continuous
 62
     7
100
AcDbLine
 10
-39.99999999999999
 20
101.2278915385354
 30
0.0
 11
-56.99999999999999
 21
101.2278915385354
 31
0.0
  0
LINE
  5
C3
330
1F
100
AcDbEntity
  8
1
  6
Continuous
 62
     7
100
AcDbLine
 10
-39.99999999999999
 20
102.0278915385354
 30
0.0
 11
-39.99999999999999
 21
101.2278915385354
 31
0.0
  0
LINE
  5
C4
330
1F
100
AcDbEntity
  8
1
  6
Continuous
 62
     7
100
AcDbLine
 10
-56.99999999999999
 20
102.0278915385354
 30
0.0
 11
-39.99999999999999
 21
102.0278915385354
 31
0.0
  0
LINE
  5
C5
330
1F
100
AcDbEntity
  8
1
  6
Continuous
 62
     7
100
AcDbLine
 10
-57.79999999999998
 20
121.4973158860495
 30
0.0
 11
-57.79999999999998
 21
126.9973158860495
 31
0.0
  0
LINE
  5
C6
330
1F
100
AcDbEntity
  8
1
  6
Continuous
 62
     7
100
AcDbLine
 10
-57.09999999999999
 20
120.9973158860495
 30
0.0
 11
-57.79999999999998
 21
121.4973158860495
 31
0.0
  0
LINE
  5
C7
330
1F
100
AcDbEntity
  8
1
  6
Continuous
 62
     2
100
AcDbLine
 10
-57.09999999999999
 20
126.9973158860495
 30
0.0
 11
-57.09999999999999
 21
120.9973158860495
 31
0.0
  0
LINE
  5
C8
330
1F
100
AcDbEntity
  8
1
  6
Continuous
 62
     7
100
AcDbLine
 10
-58.47367810583027
 20
126.9973158860495
 30
0.0
 11
-58.49999999999999
 21
126.9973158860495
 31
0.0
  0
LINE
  5
C9
330
1F
100
AcDbEntity
  8
1
  6
Continuous
 62
     7
100
AcDbLine
 10
-40.99999999999999
 20
120.9973158860495
 30
0.0
 11
-57.09999999999999
 21
120.9973158860495
 31
0.0
  0
LINE
  5
CA
330
1F
100
AcDbEntity
  8
1
  6
Continuous
 62
     7
100
AcDbLine
 10
-58.49999999999999
 20
129.4199656168599
 30
0.0
 11
-57.49999999999999
 21
129.9973158860495
 31
0.0
  0
LINE
  5
CB
330
1F
100
AcDbEntity
  8
1
  6
Continuous
 62
     7
100
AcDbLine
 10
-58.49999999999999
 20
126.9973158860495
 30
0.0
 11
-58.49999999999999
 21
129.4199656168599
 31
0.0
  0
LINE
  5
CC
102
{ACAD_REACTORS
330
188
102
}
330
1F
100
AcDbEntity
  8
1
  6
Continuous
 62
     7
100
AcDbLine
 10
-39.19999999999998
 20
126.9973158860495
 30
0.0
 11
-39.19999999999997
 21
121.4973158860495
 31
0.0
  0
LINE
  5
CD
102
{ACAD_REACTORS
330
188
102
}
330
1F
100
AcDbEntity
  8
1
  6
Continuous
 62
     7
100
AcDbLine
 10
-39.19999999999997
 20
121.4973158860495
 30
0.0
 11
-39.9
 21
120.9973158860495
 31
0.0
  0
LINE
  5
CE
102
{ACAD_REACTORS
330
189
102
}
330
1F
100
AcDbEntity
  8
1
  6
Continuous
 62
     7
100
AcDbLine
 10
-38.49999999999999
 20
126.9973158860495
 30
0.0
 11
-38.69999999999998
 21
126.9973158860495
 31
0.0
  0
LINE
  5
CF
330
1F
100
AcDbEntity
  8
1
  6
Continuous
 62
     2
100
AcDbLine
 10
-48.49999999999999
 20
128.9973158860495
 30
0.0
 11
-40.99999999999999
 21
128.9973158860495
 31
0.0
  0
LINE
  5
D0
330
1F
100
AcDbEntity
  8
1
  6
DOT_CENTER
 62
     2
100
AcDbLine
 10
-48.49999999999999
 20
119.367270773485
 30
0.0
 11
-48.49999999999999
 21
129.9973158860495
 31
0.0
  0
LINE
  5
D1
102
{ACAD_REACTORS
330
189
102
}
330
1F
100
AcDbEntity
  8
1
  6
Continuous
 62
     7
100
AcDbLine
 10
-39.9
 20
120.9973158860495
 30
0.0
 11
-40.99999999999999
 21
120.9973158860495
 31
0.0
  0
LINE
  5
D2
102
{ACAD_REACTORS
330
189
102
}
330
1F
100
AcDbEntity
  8
1
  6
Continuous
 62
     7
100
AcDbLine
 10
-39.49999999999999
 20
129.9973158860495
 30
0.0
 11
-38.49999999999999
 21
129.4199656168599
 31
0.0
  0
LINE
  5
D3
102
{ACAD_REACTORS
330
189
102
}
330
1F
100
AcDbEntity
  8
1
  6
Continuous
 62
     7
100
AcDbLine
 10
-38.49999999999999
 20
129.4199656168599
 30
0.0
 11
-38.49999999999999
 21
126.9973158860495
 31
0.0
  0
LINE
  5
D4
330
1F
100
AcDbEntity
  8
1
  6
Continuous
 62
     7
100
AcDbLine
 10
-48.49999999999999
 20
126.9973158860495
 30
0.0
 11
-58.29999999999998
 21
126.9973158860495
 31
0.0
  0
LINE
  5
D5
102
{ACAD_REACTORS
330
189
102
}
330
1F
100
AcDbEntity
  8
1
  6
Continuous
 62
     7
100
AcDbLine
 10
-40.99999999999999
 20
120.9973158860495
 30
0.0
 11
-40.99999999999999
 21
128.9973158860495
 31
0.0
  0
LINE
  5
D6
102
{ACAD_REACTORS
330
188
330
189
102
}
330
1F
100
AcDbEntity
  8
1
  6
Continuous
 62
     2
100
AcDbLine
 10
-39.9
 20
126.9973158860495
 30
0.0
 11
-39.9
 21
120.9973158860495
 31
0.0
  0
LINE
  5
D7
102
{ACAD_REACTORS
330
188
330
189
102
}
330
1F
100
AcDbEntity
  8
1
  6
Continuous
 62
     7
100
AcDbLine
 10
-39.9
 20
126.9973158860495
 30
0.0
 11
-39.19999999999998
 21
126.9973158860495
 31
0.0
  0
LINE
  5
D8
330
1F
100
AcDbEntity
  8
1
  6
Continuous
 62
     7
100
AcDbLine
 10
-52.85889894354067
 20
129.4199656168599
 30
0.0
 11
-52.85889894354067
 21
126.9973158860495
 31
0.0
  0
LINE
  5
D9
330
1F
100
AcDbEntity
  8
1
  6
Continuous
 62
     7
100
AcDbLine
 10
-54.33608606180188
 20
129.4199656168599
 30
0.0
 11
-54.33608606180188
 21
126.9973158860495
 31
0.0
  0
LINE
  5
DA
330
1F
100
AcDbEntity
  8
1
  6
Continuous
 62
     7
100
AcDbLine
 10
-54.33608606180188
 20
129.4199656168599
 30
0.0
 11
-52.85889894354067
 21
129.4199656168599
 31
0.0
  0
LINE
  5
DB
330
1F
100
AcDbEntity
  8
1
  6
Continuous
 62
     7
100
AcDbLine
 10
-58.47367810583027
 20
129.4199656168599
 30
0.0
 11
-58.47367810583027
 21
126.9973158860495
 31
0.0
  0
LINE
  5
DC
330
1F
100
AcDbEntity
  8
1
  6
Continuous
 62
     7
100
AcDbLine
 10
-58.29999999999998
 20
126.9973158860495
 30
0.0
 11
-58.47367810583027
 21
126.9973158860495
 31
0.0
  0
LINE
  5
DD
330
1F
100
AcDbEntity
  8
1
  6
Continuous
 62
     2
100
AcDbLine
 10
-48.49999999999999
 20
121.4973158860495
 30
0.0
 11
-57.79999999999998
 21
121.4973158860495
 31
0.0
  0
LINE
  5
DE
330
1F
100
AcDbEntity
  8
1
  6
DOT_CENTER
 62
     2
100
AcDbLine
 10
-36.93689515648949
 20
49.76097355616987
 30
0.0
 11
-65.6631048435105
 21
49.76097355616987
 31
0.0
  0
LINE
  5
DF
330
1F
100
AcDbEntity
  8
1
  6
DOT_CENTER
 62
     2
100
AcDbLine
 10
-48.49999999999999
 20
38.19786871265928
 30
0.0
 11
-48.49999999999999
 21
61.3240783996804
 31
0.0
  0
LINE
  5
E0
330
1F
100
AcDbEntity
  8
1
  6
Continuous
 62
     7
100
AcDbLine
 10
-44.14110105645932
 20
40.76097355616987
 30
0.0
 11
-52.85889894354067
 21
40.76097355616987
 31
0.0
  0
LINE
  5
E1
330
1F
100
AcDbEntity
  8
1
  6
Continuous
 62
     7
100
AcDbLine
 10
-54.11477916228954
 20
41.48605633853445
 30
0.0
 11
-58.47367810583027
 21
49.03589077380517
 31
0.0
  0
LINE
  5
E2
330
1F
100
AcDbEntity
  8
1
  6
Continuous
 62
     7
100
AcDbLine
 10
-38.52632189416971
 20
49.03589077380521
 30
0.0
 11
-42.88522083771042
 21
41.48605633853447
 31
0.0
  0
LINE
  5
E3
330
1F
100
AcDbEntity
  8
1
  6
Continuous
 62
     7
100
AcDbLine
 10
-42.88522083771038
 20
58.03589077380524
 30
0.0
 11
-38.52632189416971
 21
50.48605633853449
 31
0.0
  0
LINE
  5
E4
330
1F
100
AcDbEntity
  8
1
  6
Continuous
 62
     7
100
AcDbLine
 10
-52.85889894354067
 20
58.76097355616987
 30
0.0
 11
-44.14110105645932
 21
58.76097355616987
 31
0.0
  0
LINE
  5
E5
330
1F
100
AcDbEntity
  8
1
  6
Continuous
 62
     7
100
AcDbLine
 10
-58.47367810583027
 20
50.48605633853452
 30
0.0
 11
-54.11477916228958
 21
58.03589077380526
 31
0.0
  0
LINE
  5
E6
102
{ACAD_REACTORS
330
189
102
}
330
1F
100
AcDbEntity
  8
1
  6
Continuous
 62
     7
100
AcDbLine
 10
-39.99999999999999
 20
129.9973158860495
 30
0.0
 11
-39.49999999999999
 21
129.9973158860495
 31
0.0
  0
LINE
  5
E7
330
1F
100
AcDbEntity
  8
1
  6
Continuous
 62
     7
100
AcDbLine
 10
-57.49999999999999
 20
129.9973158860495
 30
0.0
 11
-39.49999999999999
 21
129.9973158860495
 31
0.0
  0
LINE
  5
E8
330
1F
100
AcDbEntity
  8
1
  6
DOT_CENTER
 62
     2
100
AcDbLine
 10
-48.49999999999999
 20
129.9973158860495
 30
0.0
 11
-48.49999999999999
 21
134.4891588454529
 31
0.0
  0
LINE
  5
E9
102
{ACAD_REACTORS
330
189
102
}
330
1F
100
AcDbEntity
  8
1
  6
Continuous
 62
     7
100
AcDbLine
 10
-39.19999999999998
 20
126.9973158860495
 30
0.0
 11
-38.69999999999998
 21
126.9973158860495
 31
0.0
  0
ARC
  5
EA
330
1F
100
AcDbEntity
  8
1
  6
Continuous
 62
     7
100
AcDbCircle
 10
-48.42943139920669
 20
112.7213768272313
 30
0.0
 40
17.27608318721053
100
AcDbArc
 50
90.23403998416347
 51
104.856145195273
  0
ARC
  5
EB
330
1F
100
AcDbEntity
  8
1
  6
Continuous
 62
     7
100
AcDbCircle
 10
-56.40488208381613
 20
125.6541904607343
 30
0.0
 40
4.296624198972362
100
AcDbArc
 50
61.21701879606091
 51
118.7829812039377
  0
ARC
  5
EC
330
1F
100
AcDbEntity
  8
1
  6
Continuous
 62
     7
100
AcDbCircle
 10
-48.49999999999999
 20
49.76097355616987
 30
0.0
 40
10.0
100
AcDbArc
 50
180.0
 51
184.1580672368333
  0
ARC
  5
ED
330
1F
100
AcDbEntity
  8
1
  6
Continuous
 62
     7
100
AcDbCircle
 10
-48.49999999999999
 20
49.76097355616987
 30
0.0
 40
10.0
100
AcDbArc
 50
0.0
 51
4.15806723683282
  0
ARC
  5
EE
330
1F
100
AcDbEntity
  8
1
  6
Continuous
 62
     7
100
AcDbCircle
 10
-48.49999999999999
 20
49.76097355616987
 30
0.0
 40
10.0
100
AcDbArc
 50
235.8419327631676
 51
244.1580672368328
  0
ARC
  5
EF
330
1F
100
AcDbEntity
  8
1
  6
Continuous
 62
     7
100
AcDbCircle
 10
-48.49999999999999
 20
49.76097355616987
 30
0.0
 40
10.0
100
AcDbArc
 50
295.8419327631672
 51
304.1580672368326
  0
ARC
  5
F0
330
1F
100
AcDbEntity
  8
1
  6
Continuous
 62
     7
100
AcDbCircle
 10
-48.49999999999999
 20
49.76097355616987
 30
0.0
 40
9.999999999999998
100
AcDbArc
 50
55.84193276316709
 51
64.15806723683286
  0
ARC
  5
F1
330
1F
100
AcDbEntity
  8
1
  6
Continuous
 62
     7
100
AcDbCircle
 10
-48.49999999999999
 20
49.76097355616987
 30
0.0
 40
10.0
100
AcDbArc
 50
115.8419327631672
 51
124.1580672368327
  0
ARC
  5
F2
330
1F
100
AcDbEntity
  8
1
  6
Continuous
 62
     7
100
AcDbCircle
 10
-48.49999999999999
 20
49.76097355616987
 30
0.0
 40
10.0
100
AcDbArc
 50
355.8419327631669
 51
0.0
  0
ARC
  5
F3
330
1F
100
AcDbEntity
  8
1
  6
Continuous
 62
     7
100
AcDbCircle
 10
-48.49999999999999
 20
49.76097355616987
 30
0.0
 40
9.999999999999991
100
AcDbArc
 50
175.8419327631671
 51
180.0
  0
ARC
  5
F4
102
{ACAD_REACTORS
330
189
102
}
330
1F
100
AcDbEntity
  8
1
  6
Continuous
 62
     7
100
AcDbCircle
 10
-39.99999999999999
 20
128.9973158860495
 30
0.0
 40
1.0
100
AcDbArc
 50
90.0
 51
180.0
  0
CIRCLE
  5
F5
330
1F
100
AcDbEntity
  8
1
  6
Continuous
 62
     7
100
AcDbCircle
 10
-48.49999999999999
 20
49.76097355616987
 30
0.0
 40
7.5
  0
CIRCLE
  5
F6
330
1F
100
AcDbEntity
  8
1
  6
Continuous
 62
     7
100
AcDbCircle
 10
-48.49999999999999
 20
49.76097355616987
 30
0.0
 40
8.999999999999993
  0
CIRCLE
  5
F7
330
1F
100
AcDbEntity
  8
1
  6
Continuous
 62
     2
100
AcDbCircle
 10
-48.49999999999999
 20
49.76097355616987
 30
0.0
 40
8.5
  0
MTEXT
  5
F8
330
1F
100
AcDbEntity
  8
1
 62
     7
100
AcDbMText
 10
-88.7
 20
3.74999999999993
 30
0.0
 40
1.5
 41
0.0
 71
     4
 72
     1
  1
T.Tedeschi
  7
CONVERTER_11
 73
     1
 44
1.32052821128451
  0
MTEXT
  5
F9
330
1F
100
AcDbEntity
  8
1
 62
     7
100
AcDbMText
 10
-88.7
 20
6.24999999999993
 30
0.0
 40
1.5
 41
0.0
 71
     4
 72
     1
  1
07/09/09
  7
CONVERTER_11
 73
     1
 44
1.32052821128451
  0
MTEXT
  5
FB
330
1F
100
AcDbEntity
  8
1
 62
     7
100
AcDbMText
 10
-76.36184965562863
 20
6.25
 30
0.0
 40
2.25
 41
0.0
 71
     4
 72
     1
  1
AS C11T\Psemi-gland Pg11 - metal -
  7
CONVERTER_13
 73
     1
 44
0.90036014405762
  0
MTEXT
  5
FC
330
1F
100
AcDbEntity
  8
1
 62
     7
100
AcDbMText
 10
-20.16184965562864
 20
5.03031971037802
 30
0.0
 40
2.25
 41
0.0
 71
     5
 72
     1
  1
2:1
  7
CONVERTER_11
 73
     1
 44
1.32052821128451
  0
INSERT
  5
106
330
1F
100
AcDbEntity
  8
1
100
AcDbBlockReference
  2
*D3
 10
0.0
 20
0.0
 30
0.0
  0
DIMENSION
  5
111
330
1F
100
AcDbEntity
  8
1
100
AcDbDimension
  2
*D4
 10
-54.74999999999999
 20
94.40289153853539
 30
0.0
 11
-48.49999999999999
 21
96.22789153853539
 31
0.0
 70
    32
  1
<>
 71
     5
 42
-1.0
 53
0.00013888888889
  3
ME10_DIM_10
100
AcDbAlignedDimension
 13
-42.24999999999999
 23
87.22789153853539
 33
0.0
 14
-54.74999999999999
 24
87.22789153853539
 34
0.0
100
AcDbRotatedDimension
  0
DIMENSION
  5
11C
330
1F
100
AcDbEntity
  8
1
100
AcDbDimension
  2
*D5
 10
-53.49999999999999
 20
76.9832649546342
 30
0.0
 11
-48.49999999999999
 21
78.7332649546342
 31
0.0
 70
    32
  1
<>
 71
     5
 42
-1.0
 53
0.00013888888889
  3
ME10_DIM_11
100
AcDbAlignedDimension
 13
-43.49999999999999
 23
82.22789153853539
 33
0.0
 14
-53.49999999999999
 24
82.22789153853539
 34
0.0
100
AcDbRotatedDimension
  0
DIMENSION
  5
127
330
1F
100
AcDbEntity
  8
1
100
AcDbDimension
  2
*D6
 10
-52.24999999999999
 20
89.29135625772639
 30
0.0
 11
-48.49999999999999
 21
91.1163562577264
 31
0.0
 70
    32
  1
<>
 71
     5
 42
-1.0
 53
0.00013888888889
  3
ME10_DIM_12
100
AcDbAlignedDimension
 13
-44.74999999999999
 23
87.22789153853539
 33
0.0
 14
-52.24999999999999
 24
87.22789153853539
 34
0.0
100
AcDbRotatedDimension
  0
DIMENSION
  5
134
330
1F
100
AcDbEntity
  8
1
100
AcDbDimension
  2
*D7
 10
-65.29985755320419
 20
70.22789153853539
 30
0.0
 11
-67.1248575532042
 21
69.82789153853538
 31
0.0
 70
    32
  1
<>
 71
     5
 42
-1.0
 53
90.0
  3
ME10_DIM_13
100
AcDbAlignedDimension
 13
-56.99999999999999
 23
69.42789153853538
 33
0.0
 14
-56.99999999999999
 24
70.22789153853539
 34
0.0
 50
90.0
100
AcDbRotatedDimension
  0
DIMENSION
  5
13F
330
1F
100
AcDbEntity
  8
1
100
AcDbDimension
  2
*D8
 10
-65.2801545004875
 20
87.22789153853539
 30
0.0
 11
-67.0301545004875
 21
84.22789153853539
 31
0.0
 70
    32
  1
<>
 71
     5
 42
-1.0
 53
90.0
  3
ME10_DIM_14
100
AcDbAlignedDimension
 13
-56.74999999999999
 23
81.22789153853539
 33
0.0
 14
-56.74999999999999
 24
87.22789153853539
 34
0.0
 50
90.0
100
AcDbRotatedDimension
  0
DIMENSION
  5
14C
330
1F
100
AcDbEntity
  8
1
100
AcDbDimension
  2
*D9
 10
-65.29985755320419
 20
102.0278915385354
 30
0.0
 11
-67.1248575532042
 21
101.6278915385354
 31
0.0
 70
    32
  1
<>
 71
     5
 42
-1.0
 53
90.0
  3
ME10_DIM_15
100
AcDbAlignedDimension
 13
-56.99999999999999
 23
101.2278915385354
 33
0.0
 14
-56.99999999999999
 24
102.0278915385354
 34
0.0
 50
90.0
100
AcDbRotatedDimension
  0
DIMENSION
  5
157
330
1F
100
AcDbEntity
  8
1
100
AcDbDimension
  2
*D10
 10
-65.2801545004875
 20
120.9973158860495
 30
0.0
 11
-67.0301545004875
 21
123.9973158860495
 31
0.0
 70
    32
  1
<>
 71
     5
 42
-1.0
 53
90.0
  3
ME10_DIM_16
100
AcDbAlignedDimension
 13
-58.49999999999999
 23
126.9973158860495
 33
0.0
 14
-57.09999999999999
 24
120.9973158860495
 34
0.0
 50
90.0
100
AcDbRotatedDimension
  0
DIMENSION
  5
162
330
1F
100
AcDbEntity
  8
1
100
AcDbDimension
  2
*D11
 10
-65.3805580479212
 20
58.76097355616987
 30
0.0
 11
-67.1305580479212
 21
49.76097355616987
 31
0.0
 70
    32
  1
<>
 71
     5
 42
-1.0
 53
90.0
  3
ME10_DIM_17
100
AcDbAlignedDimension
 13
-52.85889894354067
 23
40.76097355616987
 33
0.0
 14
-52.85889894354067
 24
58.76097355616987
 34
0.0
 50
90.0
100
AcDbRotatedDimension
  0
DIMENSION
  5
16D
330
1F
100
AcDbEntity
  8
1
100
AcDbDimension
  2
*D12
 10
-58.5
 20
33.8644083074679
 30
0.0
 11
-48.49999999999999
 21
35.6144083074679
 31
0.0
 70
    32
  1
<>
 71
     5
 42
-1.0
 53
0.00013888888889
  3
ME10_DIM_18
100
AcDbAlignedDimension
 13
-38.49999999999999
 23
49.76097355616987
 33
0.0
 14
-58.49999999999999
 24
49.76097355616987
 34
0.0
100
AcDbRotatedDimension
  0
DIMENSION
  5
17A
330
1F
100
AcDbEntity
  8
1
100
AcDbDimension
  2
*D13
 10
-65.3058438712011
 20
129.9973158860495
 30
0.0
 11
-67.0558438712011
 21
128.4973158860495
 31
0.0
 70
    32
  1
<>
 71
     5
 42
-1.0
 53
90.0
  3
ME10_DIM_19
100
AcDbAlignedDimension
 13
-58.49999999999999
 23
126.9973158860495
 33
0.0
 14
-57.49999999999999
 24
129.9973158860495
 34
0.0
 50
90.0
100
AcDbRotatedDimension
  0
DIMENSION
  5
185
330
1F
100
AcDbEntity
  8
1
100
AcDbDimension
  2
*D14
 10
-39.19999999999997
 20
115.116547294161
 30
0.0
 11
-48.49999999999997
 21
117.091547294161
 31
0.0
 70
    32
  1
Pg 11
 71
     5
 42
-1.0
 53
0.00013888888889
  3
ME10_DIM_20
100
AcDbAlignedDimension
 13
-57.79999999999998
 23
121.4973158860495
 33
0.0
 14
-39.19999999999997
 24
121.4973158860495
 34
0.0
100
AcDbRotatedDimension
  0
HATCH
  5
186
330
1F
100
AcDbEntity
  8
1
  6
Continuous
 62
     3
100
AcDbHatch
 10
0.0
 20
0.0
 30
0.0
210
0.0
220
0.0
230
1.0
  2
_USER
 70
     0
 71
     1
 91
        1
 92
        1
 93
        6
 72
     1
 10
-53.49999999999999
 20
87.22789153853539
 11
-52.24999999999999
 21
87.22789153853539
 72
     1
 10
-52.24999999999999
 20
87.22789153853539
 11
-52.24999999999999
 21
81.22789153853539
 72
     1
 10
-52.24999999999999
 20
81.22789153853539
 11
-56.74999999999999
 21
81.22789153853539
 72
     1
 10
-56.74999999999999
 20
81.22789153853539
 11
-56.74999999999999
 21
87.22789153853539
 72
     1
 10
-56.74999999999999
 20
87.22789153853539
 11
-54.74999999999999
 21
87.22789153853539
 72
     1
 10
-54.74999999999999
 20
87.22789153853539
 11
-53.49999999999999
 21
87.22789153853539
 97
        6
330
B9
330
B8
330
B7
330
BD
330
C0
330
BB
 75
     1
 76
     0
 52
45.0
 41
1.0
 77
     0
 78
     1
 53
45.0
 43
0.0
 44
0.0
 45
-0.7071067811865475
 46
0.7071067811865476
 79
     0
 98
        1
 10
0.0
 20
0.0
  0
HATCH
  5
187
330
1F
100
AcDbEntity
  8
1
  6
Continuous
 62
     3
100
AcDbHatch
 10
0.0
 20
0.0
 30
0.0
210
0.0
220
0.0
230
1.0
  2
_USER
 70
     0
 71
     1
 91
        1
 92
        1
 93
        6
 72
     1
 10
-40.24999999999999
 20
87.22789153853539
 11
-40.24999999999999
 21
81.22789153853539
 72
     1
 10
-40.24999999999999
 20
81.22789153853539
 11
-44.74999999999999
 21
81.22789153853539
 72
     1
 10
-44.74999999999999
 20
81.22789153853539
 11
-44.74999999999999
 21
87.22789153853539
 72
     1
 10
-44.74999999999999
 20
87.22789153853539
 11
-43.49999999999999
 21
87.22789153853539
 72
     1
 10
-43.49999999999999
 20
87.22789153853539
 11
-42.24999999999999
 21
87.22789153853539
 72
     1
 10
-42.24999999999999
 20
87.22789153853539
 11
-40.24999999999999
 21
87.22789153853539
 97
        6
330
BF
330
BE
330
B5
330
B3
330
B1
330
AF
 75
     1
 76
     0
 52
45.0
 41
1.0
 77
     0
 78
     1
 53
45.0
 43
0.0
 44
0.0
 45
-0.7071067811865475
 46
0.7071067811865476
 79
     0
 98
        1
 10
0.0
 20
0.0
  0
HATCH
  5
188
330
1F
100
AcDbEntity
  8
1
  6
Continuous
 62
     3
100
AcDbHatch
 10
0.0
 20
0.0
 30
0.0
210
0.0
220
0.0
230
1.0
  2
_USER
 70
     0
 71
     1
 91
        1
 92
        1
 93
        4
 72
     1
 10
-39.19999999999997
 20
121.4973158860495
 11
-39.9
 21
120.9973158860495
 72
     1
 10
-39.9
 20
120.9973158860495
 11
-39.9
 21
126.9973158860495
 72
     1
 10
-39.9
 20
126.9973158860495
 11
-39.19999999999998
 21
126.9973158860495
 72
     1
 10
-39.19999999999998
 20
126.9973158860495
 11
-39.19999999999997
 21
121.4973158860495
 97
        4
330
D7
330
D6
330
CD
330
CC
 75
     1
 76
     0
 52
45.0
 41
2.0
 77
     0
 78
     1
 53
45.0
 43
0.0
 44
0.0
 45
-1.414213562373095
 46
1.414213562373095
 79
     0
 98
        1
 10
0.0
 20
0.0
  0
HATCH
  5
189
330
1F
100
AcDbEntity
  8
1
  6
Continuous
 62
     3
100
AcDbHatch
 10
0.0
 20
0.0
 30
0.0
210
0.0
220
0.0
230
1.0
  2
_USER
 70
     0
 71
     1
 91
        1
 92
        1
 93
       10
 72
     1
 10
-38.49999999999999
 20
129.4199656168599
 11
-38.49999999999999
 21
126.9973158860495
 72
     1
 10
-38.49999999999999
 20
126.9973158860495
 11
-38.69999999999998
 21
126.9973158860495
 72
     1
 10
-38.69999999999998
 20
126.9973158860495
 11
-39.19999999999998
 21
126.9973158860495
 72
     1
 10
-39.19999999999998
 20
126.9973158860495
 11
-39.9
 21
126.9973158860495
 72
     1
 10
-39.9
 20
126.9973158860495
 11
-39.9
 21
120.9973158860495
 72
     1
 10
-39.9
 20
120.9973158860495
 11
-40.99999999999999
 21
120.9973158860495
 72
     1
 10
-40.99999999999999
 20
120.9973158860495
 11
-40.99999999999999
 21
128.9973158860495
 72
     2
 10
-39.99999999999999
 20
128.9973158860495
 40
1.0
 50
180.0
 51
270.0
 73
     0
 72
     1
 10
-39.99999999999999
 20
129.9973158860495
 11
-39.49999999999999
 21
129.9973158860495
 72
     1
 10
-39.49999999999999
 20
129.9973158860495
 11
-38.49999999999999
 21
129.4199656168599
 97
       10
330
E6
330
F4
330
D5
330
D1
330
D6
330
D7
330
E9
330
CE
330
D3
330
D2
 75
     1
 76
     0
 52
45.0
 41
2.0
 77
     0
 78
     1
 53
45.0
 43
0.0
 44
0.0
 45
-1.414213562373095
 46
1.414213562373095
 79
     0
 98
        1
 10
0.0
 20
0.0
  0
ENDSEC
  0
SECTION
  2
OBJECTS
  0
DICTIONARY
  5
C
330
0
100
AcDbDictionary
281
     1
  3
ACAD_GROUP
350
D
  3
ACAD_LAYOUT
350
1A
  3
ACAD_MATERIAL
350
3B
  3
ACAD_MLEADERSTYLE
350
18C
  3
ACAD_MLINESTYLE
350
17
  3
ACAD_PLOTSETTINGS
350
19
  3
ACAD_PLOTSTYLENAME
350
E
  3
ACAD_VISUALSTYLE
350
2A
  3
AcDbVariableDictionary
350
18A
  0
DICTIONARY
  5
D
102
{ACAD_REACTORS
330
C
102
}
330
C
100
AcDbDictionary
281
     1
  0
DICTIONARY
  5
1A
102
{ACAD_REACTORS
330
C
102
}
330
C
100
AcDbDictionary
281
     1
  3
Layout1
350
1E
  3
Layout2
350
26
  3
Model
350
22
  0
DICTIONARY
  5
3B
102
{ACAD_REACTORS
330
C
102
}
330
C
100
AcDbDictionary
281
     1
  3
ByBlock
350
3D
  3
ByLayer
350
3C
  3
Global
350
3E
  0
DICTIONARY
  5
18C
102
{ACAD_REACTORS
330
C
102
}
330
C
100
AcDbDictionary
281
     1
  0
DICTIONARY
  5
17
102
{ACAD_REACTORS
330
C
102
}
330
C
100
AcDbDictionary
281
     1
  3
Standard
350
18
  0
DICTIONARY
  5
19
102
{ACAD_REACTORS
330
C
102
}
330
C
100
AcDbDictionary
281
     1
  0
ACDBDICTIONARYWDFLT
  5
E
102
{ACAD_REACTORS
330
C
102
}
330
C
100
AcDbDictionary
281
     1
  3
Normal
350
F
100
AcDbDictionaryWithDefault
340
F
  0
DICTIONARY
  5
2A
102
{ACAD_REACTORS
330
C
102
}
330
C
100
AcDbDictionary
281
     1
  3
2dWireframe
350
2F
  3
3D Hidden
350
31
  3
3dWireframe
350
30
  3
Basic
350
32
  3
Brighten
350
36
  3
ColorChange
350
3A
  3
Conceptual
350
34
  3
Dim
350
35
  3
Facepattern
350
39
  3
Flat
350
2B
  3
FlatWithEdges
350
2C
  3
Gouraud
350
2D
  3
GouraudWithEdges
350
2E
  3
Linepattern
350
38
  3
Realistic
350
33
  3
Thicken
350
37
  0
DICTIONARY
  5
18A
102
{ACAD_REACTORS
330
C
102
}
330
C
100
AcDbDictionary
281
     1
  3
DIMASSOC
350
18D
  3
HIDETEXT
350
18E
  0
LAYOUT
  5
1E
102
{ACAD_REACTORS
330
1A
102
}
330
1A
100
AcDbPlotSettings
  1

  2
none_device
  4

  6

 40
0.0
 41
0.0
 42
0.0
 43
0.0
 44
0.0
 45
0.0
 46
0.0
 47
0.0
 48
0.0
 49
0.0
140
0.0
141
0.0
142
1.0
143
1.0
 70
   688
 72
     0
 73
     0
 74
     5
  7

 75
    16
147
1.0
148
0.0
149
0.0
100
AcDbLayout
  1
Layout1
 70
     1
 71
     1
 10
0.0
 20
0.0
 11
12.0
 21
9.0
 12
0.0
 22
0.0
 32
0.0
 14
1.00000000000000E+20
 24
1.00000000000000E+20
 34
1.00000000000000E+20
 15
-1.00000000000000E+20
 25
-1.00000000000000E+20
 35
-1.00000000000000E+20
146
0.0
 13
0.0
 23
0.0
 33
0.0
 16
1.0
 26
0.0
 36
0.0
 17
0.0
 27
1.0
 37
0.0
 76
     0
330
1B
  0
LAYOUT
  5
26
102
{ACAD_REACTORS
330
1A
102
}
330
1A
100
AcDbPlotSettings
  1

  2
none_device
  4

  6

 40
0.0
 41
0.0
 42
0.0
 43
0.0
 44
0.0
 45
0.0
 46
0.0
 47
0.0
 48
0.0
 49
0.0
140
0.0
141
0.0
142
1.0
143
1.0
 70
   688
 72
     0
 73
     0
 74
     5
  7

 75
    16
147
1.0
148
0.0
149
0.0
100
AcDbLayout
  1
Layout2
 70
     1
 71
     2
 10
0.0
 20
0.0
 11
0.0
 21
0.0
 12
0.0
 22
0.0
 32
0.0
 14
0.0
 24
0.0
 34
0.0
 15
0.0
 25
0.0
 35
0.0
146
0.0
 13
0.0
 23
0.0
 33
0.0
 16
1.0
 26
0.0
 36
0.0
 17
0.0
 27
1.0
 37
0.0
 76
     0
330
23
  0
LAYOUT
  5
22
102
{ACAD_REACTORS
330
1A
102
}
330
1A
100
AcDbPlotSettings
  1

  2
none_device
  4

  6

 40
0.0
 41
0.0
 42
0.0
 43
0.0
 44
0.0
 45
0.0
 46
0.0
 47
0.0
 48
0.0
 49
0.0
140
0.0
141
0.0
142
1.0
143
1.0
 70
  1712
 72
     0
 73
     0
 74
     0
  7

 75
     0
147
1.0
148
0.0
149
0.0
100
AcDbLayout
  1
Model
 70
     1
 71
     0
 10
0.0
 20
0.0
 11
12.0
 21
9.0
 12
0.0
 22
0.0
 32
0.0
 14
-105.0000000000001
 24
0.0
 34
0.0
 15
0.0
 25
148.5000000000001
 35
0.0
146
0.0
 13
0.0
 23
0.0
 33
0.0
 16
1.0
 26
0.0
 36
0.0
 17
0.0
 27
1.0
 37
0.0
 76
     0
330
1F
331
29
  0
MATERIAL
  5
3D
102
{ACAD_REACTORS
330
3B
102
}
102
{ACAD_XDICTIONARY
360
1B1
102
}
330
3B
100
AcDbMaterial
  1
ByBlock
  0
MATERIAL
  5
3C
102
{ACAD_REACTORS
330
3B
102
}
102
{ACAD_XDICTIONARY
360
1AF
102
}
330
3B
100
AcDbMaterial
  1
ByLayer
  0
MATERIAL
  5
3E
102
{ACAD_REACTORS
330
3B
102
}
102
{ACAD_XDICTIONARY
360
1B3
102
}
330
3B
100
AcDbMaterial
  1
Global
  0
MLINESTYLE
  5
18
102
{ACAD_REACTORS
330
17
102
}
330
17
100
AcDbMlineStyle
  2
Standard
 70
     0
  3

 62
   256
 51
90.0
 52
90.0
 71
     2
 49
0.5
 62
   256
  6
BYLAYER
 49
-0.5
 62
   256
  6
BYLAYER
  0
ACDBPLACEHOLDER
  5
F
102
{ACAD_REACTORS
330
E
102
}
330
E
  0
VISUALSTYLE
  5
2F
102
{ACAD_REACTORS
330
2A
102
}
102
{ACAD_XDICTIONARY
360
197
102
}
330
2A
100
AcDbVisualStyle
  2
2dWireframe
 70
     4
 71
     0
 72
     2
 73
     0
 90
        0
 40
-0.6
 41
-30.0
 62
     5
 63
     7
 74
     1
 91
        4
 64
     7
 65
   257
 75
     1
175
     1
 42
1.0
 92
        0
 66
   257
 43
1.0
 76
     1
 77
     6
 78
     2
 67
     7
 79
     5
170
     0
171
     0
290
     0
174
     0
 93
        1
 44
0.0
173
     0
291
     0
 45
0.0
1001
ACAD
1000
AcDbSavedByObjectVersion
1070
     0
  0
VISUALSTYLE
  5
31
102
{ACAD_REACTORS
330
2A
102
}
102
{ACAD_XDICTIONARY
360
19B
102
}
330
2A
100
AcDbVisualStyle
  2
3D Hidden
 70
     6
 71
     1
 72
     2
 73
     2
 90
        0
 40
-0.6
 41
-30.0
 62
     5
 63
     7
 74
     2
 91
        2
 64
     7
 65
   257
 75
     2
175
     1
 42
40.0
 92
        0
 66
   257
 43
1.0
 76
     1
 77
     6
 78
     2
 67
     7
 79
     3
170
     0
171
     0
290
     0
174
     0
 93
        1
 44
0.0
173
     0
291
     0
 45
0.0
1001
ACAD
1000
AcDbSavedByObjectVersion
1070
     0
  0
VISUALSTYLE
  5
30
102
{ACAD_REACTORS
330
2A
102
}
102
{ACAD_XDICTIONARY
360
199
102
}
330
2A
100
AcDbVisualStyle
  2
3dWireframe
 70
     5
 71
     0
 72
     2
 73
     0
 90
        0
 40
-0.6
 41
-30.0
 62
     5
 63
     7
 74
     1
 91
        4
 64
     7
 65
   257
 75
     1
175
     1
 42
1.0
 92
        0
 66
   257
 43
1.0
 76
     1
 77
     6
 78
     2
 67
     7
 79
     5
170
     0
171
     0
290
     0
174
     0
 93
        1
 44
0.0
173
     0
291
     0
 45
0.0
1001
ACAD
1000
AcDbSavedByObjectVersion
1070
     0
  0
VISUALSTYLE
  5
32
102
{ACAD_REACTORS
330
2A
102
}
102
{ACAD_XDICTIONARY
360
19D
102
}
330
2A
100
AcDbVisualStyle
  2
Basic
 70
     7
 71
     1
 72
     0
 73
     1
 90
        0
 40
-0.6
 41
-30.0
 62
     5
 63
     7
 74
     0
 91
        4
 64
     7
 65
   257
 75
     1
175
     1
 42
1.0
 92
        8
 66
     7
 43
1.0
 76
     1
 77
     6
 78
     2
 67
     7
 79
     5
170
     0
171
     0
290
     0
174
     0
 93
        1
 44
0.0
173
     0
291
     1
 45
0.0
1001
ACAD
1000
AcDbSavedByObjectVersion
1070
     0
  0
VISUALSTYLE
  5
36
102
{ACAD_REACTORS
330
2A
102
}
102
{ACAD_XDICTIONARY
360
1A5
102
}
330
2A
100
AcDbVisualStyle
  2
Brighten
 70
    12
 71
     2
 72
     2
 73
     0
 90
        0
 40
-0.6
 41
-30.0
 62
     5
 63
     7
 74
     1
 91
        4
 64
     7
 65
   257
 75
     1
175
     1
 42
1.0
 92
        8
 66
     7
 43
1.0
 76
     1
 77
     6
 78
     2
 67
     7
 79
     5
170
     0
171
     0
290
     0
174
     0
 93
        1
 44
50.0
173
     0
291
     1
 45
0.0
1001
ACAD
1000
AcDbSavedByObjectVersion
1070
     0
  0
VISUALSTYLE
  5
3A
102
{ACAD_REACTORS
330
2A
102
}
102
{ACAD_XDICTIONARY
360
1AD
102
}
330
2A
100
AcDbVisualStyle
  2
ColorChange
 70
    16
 71
     2
 72
     2
 73
     3
 90
        0
 40
-0.6
 41
-30.0
 62
     5
 63
     8
 74
     1
 91
        4
 64
     7
 65
   257
 75
     1
175
     1
 42
1.0
 92
        8
 66
     8
 43
1.0
 76
     1
 77
     6
 78
     2
 67
     7
 79
     5
170
     0
171
     0
290
     0
174
     0
 93
        1
 44
0.0
173
     0
291
     1
 45
0.0
1001
ACAD
1000
AcDbSavedByObjectVersion
1070
     0
  0
VISUALSTYLE
  5
34
102
{ACAD_REACTORS
330
2A
102
}
102
{ACAD_XDICTIONARY
360
1A1
102
}
330
2A
100
AcDbVisualStyle
  2
Conceptual
 70
     9
 71
     3
 72
     2
 73
     0
 90
        0
 40
-0.6
 41
-30.0
 62
     5
 63
     7
 74
     2
 91
        2
 64
     7
 65
   257
 75
     1
175
     1
 42
40.0
 92
        8
 66
     7
 43
1.0
 76
     1
 77
     6
 78
     2
 67
     7
 79
     3
170
     0
171
     0
290
     0
174
     0
 93
        1
 44
0.0
173
     0
291
     0
 45
0.0
1001
ACAD
1000
AcDbSavedByObjectVersion
1070
     0
  0
VISUALSTYLE
  5
35
102
{ACAD_REACTORS
330
2A
102
}
102
{ACAD_XDICTIONARY
360
1A3
102
}
330
2A
100
AcDbVisualStyle
  2
Dim
 70
    11
 71
     2
 72
     2
 73
     0
 90
        0
 40
-0.6
 41
-30.0
 62
     5
 63
     7
 74
     1
 91
        4
 64
     7
 65
   257
 75
     1
175
     1
 42
1.0
 92
        8
 66
     7
 43
1.0
 76
     1
 77
     6
 78
     2
 67
     7
 79
     5
170
     0
171
     0
290
     0
174
     0
 93
        1
 44
-50.0
173
     0
291
     1
 45
0.0
1001
ACAD
1000
AcDbSavedByObjectVersion
1070
     0
  0
VISUALSTYLE
  5
39
102
{ACAD_REACTORS
330
2A
102
}
102
{ACAD_XDICTIONARY
360
1AB
102
}
330
2A
100
AcDbVisualStyle
  2
Facepattern
 70
    15
 71
     2
 72
     2
 73
     0
 90
        0
 40
-0.6
 41
-30.0
 62
     5
 63
     7
 74
     1
 91
        4
 64
     7
 65
   257
 75
     1
175
     1
 42
1.0
 92
        8
 66
     7
 43
1.0
 76
     1
 77
     6
 78
     2
 67
     7
 79
     5
170
     0
171
     0
290
     0
174
     0
 93
        1
 44
0.0
173
     0
291
     1
 45
0.0
1001
ACAD
1000
AcDbSavedByObjectVersion
1070
     0
  0
VISUALSTYLE
  5
2B
102
{ACAD_REACTORS
330
2A
102
}
102
{ACAD_XDICTIONARY
360
18F
102
}
330
2A
100
AcDbVisualStyle
  2
Flat
 70
     0
 71
     2
 72
     1
 73
     1
 90
        2
 40
-0.6
 41
30.0
 62
     5
 63
     7
 74
     0
 91
        4
 64
     7
 65
   257
 75
     1
175
     1
 42
1.0
 92
        8
 66
     7
 43
1.0
 76
     1
 77
     6
 78
     2
 67
     7
 79
     5
170
     0
171
     0
290
     0
174
     0
 93
       13
 44
0.0
173
     0
291
     1
 45
0.0
1001
ACAD
1000
AcDbSavedByObjectVersion
1070
     0
  0
VISUALSTYLE
  5
2C
102
{ACAD_REACTORS
330
2A
102
}
102
{ACAD_XDICTIONARY
360
191
102
}
330
2A
100
AcDbVisualStyle
  2
FlatWithEdges
 70
     1
 71
     2
 72
     1
 73
     1
 90
        2
 40
-0.6
 41
30.0
 62
     5
 63
     7
 74
     1
 91
        4
 64
     7
 65
   257
 75
     1
175
     1
 42
1.0
 92
        0
 66
   257
 43
1.0
 76
     1
 77
     6
 78
     2
 67
     7
 79
     5
170
     0
171
     0
290
     0
174
     0
 93
       13
 44
0.0
173
     0
291
     1
 45
0.0
1001
ACAD
1000
AcDbSavedByObjectVersion
1070
     0
  0
VISUALSTYLE
  5
2D
102
{ACAD_REACTORS
330
2A
102
}
102
{ACAD_XDICTIONARY
360
193
102
}
330
2A
100
AcDbVisualStyle
  2
Gouraud
 70
     2
 71
     2
 72
     2
 73
     1
 90
        2
 40
-0.6
 41
30.0
 62
     5
 63
     7
 74
     0
 91
        4
 64
     7
 65
   257
 75
     1
175
     1
 42
1.0
 92
        0
 66
     7
 43
1.0
 76
     1
 77
     6
 78
     2
 67
     7
 79
     5
170
     0
171
     0
290
     0
174
     0
 93
       13
 44
0.0
173
     0
291
     1
 45
0.0
1001
ACAD
1000
AcDbSavedByObjectVersion
1070
     0
  0
VISUALSTYLE
  5
2E
102
{ACAD_REACTORS
330
2A
102
}
102
{ACAD_XDICTIONARY
360
195
102
}
330
2A
100
AcDbVisualStyle
  2
GouraudWithEdges
 70
     3
 71
     2
 72
     2
 73
     1
 90
        2
 40
-0.6
 41
30.0
 62
     5
 63
     7
 74
     1
 91
        4
 64
     7
 65
   257
 75
     1
175
     1
 42
1.0
 92
        0
 66
   257
 43
1.0
 76
     1
 77
     6
 78
     2
 67
     7
 79
     5
170
     0
171
     0
290
     0
174
     0
 93
       13
 44
0.0
173
     0
291
     1
 45
0.0
1001
ACAD
1000
AcDbSavedByObjectVersion
1070
     0
  0
VISUALSTYLE
  5
38
102
{ACAD_REACTORS
330
2A
102
}
102
{ACAD_XDICTIONARY
360
1A9
102
}
330
2A
100
AcDbVisualStyle
  2
Linepattern
 70
    14
 71
     2
 72
     2
 73
     0
 90
        0
 40
-0.6
 41
-30.0
 62
     5
 63
     7
 74
     1
 91
        4
 64
     7
 65
   257
 75
     7
175
     7
 42
1.0
 92
        8
 66
     7
 43
1.0
 76
     1
 77
     6
 78
     2
 67
     7
 79
     5
170
     0
171
     0
290
     0
174
     0
 93
        1
 44
0.0
173
     0
291
     1
 45
0.0
1001
ACAD
1000
AcDbSavedByObjectVersion
1070
     0
  0
VISUALSTYLE
  5
33
102
{ACAD_REACTORS
330
2A
102
}
102
{ACAD_XDICTIONARY
360
19F
102
}
330
2A
100
AcDbVisualStyle
  2
Realistic
 70
     8
 71
     2
 72
     2
 73
     0
 90
        0
 40
-0.6
 41
-30.0
 62
     5
 63
     7
 74
     1
 91
        0
 64
     7
 65
   257
 75
     1
175
     1
 42
1.0
 92
        8
 66
     8
 43
1.0
 76
     1
 77
     6
 78
     2
 67
     7
 79
     5
170
     0
171
     0
290
     0
174
     0
 93
       13
 44
0.0
173
     0
291
     0
 45
0.0
1001
ACAD
1000
AcDbSavedByObjectVersion
1070
     0
  0
VISUALSTYLE
  5
37
102
{ACAD_REACTORS
330
2A
102
}
102
{ACAD_XDICTIONARY
360
1A7
102
}
330
2A
100
AcDbVisualStyle
  2
Thicken
 70
    13
 71
     2
 72
     2
 73
     0
 90
        0
 40
-0.6
 41
-30.0
 62
     5
 63
     7
 74
     1
 91
        4
 64
     7
 65
   257
 75
     1
175
     1
 42
1.0
 92
       12
 66
     7
 43
1.0
 76
     1
 77
     6
 78
     2
 67
     7
 79
     5
170
     0
171
     0
290
     0
174
     0
 93
        1
 44
0.0
173
     0
291
     1
 45
0.0
1001
ACAD
1000
AcDbSavedByObjectVersion
1070
     0
  0
DICTIONARYVAR
  5
18D
102
{ACAD_REACTORS
330
18A
102
}
330
18A
100
DictionaryVariables
280
     0
  1
2
  0
DICTIONARYVAR
  5
18E
102
{ACAD_REACTORS
330
18A
102
}
330
18A
100
DictionaryVariables
280
     0
  1
1
  0
DICTIONARY
  5
1B1
330
3D
100
AcDbDictionary
280
     1
281
     1
  3
ACAD_XREC_ROUNDTRIP
360
1B2
  0
DICTIONARY
  5
1AF
330
3C
100
AcDbDictionary
280
     1
281
     1
  3
ACAD_XREC_ROUNDTRIP
360
1B0
  0
DICTIONARY
  5
1B3
330
3E
100
AcDbDictionary
280
     1
281
     1
  3
ACAD_XREC_ROUNDTRIP
360
1B4
  0
DICTIONARY
  5
197
330
2F
100
AcDbDictionary
280
     1
281
     1
  3
ACAD_XREC_ROUNDTRIP
360
198
  0
DICTIONARY
  5
19B
330
31
100
AcDbDictionary
280
     1
281
     1
  3
ACAD_XREC_ROUNDTRIP
360
19C
  0
DICTIONARY
  5
199
330
30
100
AcDbDictionary
280
     1
281
     1
  3
ACAD_XREC_ROUNDTRIP
360
19A
  0
DICTIONARY
  5
19D
330
32
100
AcDbDictionary
280
     1
281
     1
  3
ACAD_XREC_ROUNDTRIP
360
19E
  0
DICTIONARY
  5
1A5
330
36
100
AcDbDictionary
280
     1
281
     1
  3
ACAD_XREC_ROUNDTRIP
360
1A6
  0
DICTIONARY
  5
1AD
330
3A
100
AcDbDictionary
280
     1
281
     1
  3
ACAD_XREC_ROUNDTRIP
360
1AE
  0
DICTIONARY
  5
1A1
330
34
100
AcDbDictionary
280
     1
281
     1
  3
ACAD_XREC_ROUNDTRIP
360
1A2
  0
DICTIONARY
  5
1A3
330
35
100
AcDbDictionary
280
     1
281
     1
  3
ACAD_XREC_ROUNDTRIP
360
1A4
  0
DICTIONARY
  5
1AB
330
39
100
AcDbDictionary
280
     1
281
     1
  3
ACAD_XREC_ROUNDTRIP
360
1AC
  0
DICTIONARY
  5
18F
330
2B
100
AcDbDictionary
280
     1
281
     1
  3
ACAD_XREC_ROUNDTRIP
360
190
  0
DICTIONARY
  5
191
330
2C
100
AcDbDictionary
280
     1
281
     1
  3
ACAD_XREC_ROUNDTRIP
360
192
  0
DICTIONARY
  5
193
330
2D
100
AcDbDictionary
280
     1
281
     1
  3
ACAD_XREC_ROUNDTRIP
360
194
  0
DICTIONARY
  5
195
330
2E
100
AcDbDictionary
280
     1
281
     1
  3
ACAD_XREC_ROUNDTRIP
360
196
  0
DICTIONARY
  5
1A9
330
38
100
AcDbDictionary
280
     1
281
     1
  3
ACAD_XREC_ROUNDTRIP
360
1AA
  0
DICTIONARY
  5
19F
330
33
100
AcDbDictionary
280
     1
281
     1
  3
ACAD_XREC_ROUNDTRIP
360
1A0
  0
DICTIONARY
  5
1A7
330
37
100
AcDbDictionary
280
     1
281
     1
  3
ACAD_XREC_ROUNDTRIP
360
1A8
  0
XRECORD
  5
1B2
102
{ACAD_REACTORS
330
1B1
102
}
330
1B1
100
AcDbXrecord
280
     1
102
MATERIAL
148
0.0
149
0.0
149
0.0
 93
        0
 94
      127
282
     0
 72
     1
 77
     1
171
     1
175
     1
179
     1
273
     0
  0
XRECORD
  5
1B0
102
{ACAD_REACTORS
330
1AF
102
}
330
1AF
100
AcDbXrecord
280
     1
102
MATERIAL
148
0.0
149
0.0
149
0.0
 93
        0
 94
      127
282
     0
 72
     1
 77
     1
171
     1
175
     1
179
     1
273
     0
  0
XRECORD
  5
1B4
102
{ACAD_REACTORS
330
1B3
102
}
330
1B3
100
AcDbXrecord
280
     1
102
MATERIAL
148
0.0
149
0.0
149
0.0
 93
        0
 94
      127
282
     0
 72
     1
 77
     1
171
     1
175
     1
179
     1
273
     0
  0
XRECORD
  5
198
102
{ACAD_REACTORS
330
197
102
}
330
197
100
AcDbXrecord
280
     1
102
RTVSPropertyOp0
 70
     1
102
RTVSPropertyOp1
 70
     1
102
RTVSPropertyOp2
 70
     1
102
RTVSPropertyOp3
 70
     1
102
RTVSPropertyOp4
 70
     1
102
RTVSPropertyOp5
 70
     1
102
RTVSPropertyOp6
 70
     1
102
RTVSPropertyOp7
 70
     1
102
RTVSPropertyOp8
 70
     1
102
RTVSPropertyOp9
 70
     1
102
RTVSPropertyOp10
 70
     1
102
RTVSPropertyOp11
 70
     1
102
RTVSPropertyOp12
 70
     1
102
RTVSPropertyOp13
 70
     1
102
RTVSPropertyOp14
 70
     1
102
RTVSPropertyOp15
 70
     1
102
RTVSPropertyOp16
 70
     1
102
RTVSPropertyOp17
 70
     1
102
RTVSPropertyOp18
 70
     1
102
RTVSPropertyOp19
 70
     1
102
RTVSPropertyOp20
 70
     1
102
RTVSPropertyOp21
 70
     1
102
RTVSPropertyOp22
 70
     1
102
RTVSPropertyOp23
 70
     1
102
RTVSPropertyOp24
 70
     1
102
RTVSPropertyOp25
 70
     1
102
RTVSPropertyOp26
 70
     1
102
RTVSPropertyOp27
 70
     1
102
RTVSPropertyOp28
 70
     1
102
RTVSPropertyOp29
 70
     1
102
RTVSPropertyOp30
 70
     1
102
RTVSPropertyOp31
 70
     1
102
RTVSPropertyOp32
 70
     1
  0
XRECORD
  5
19C
102
{ACAD_REACTORS
330
19B
102
}
330
19B
100
AcDbXrecord
280
     1
102
RTVSPropertyOp0
 70
     1
102
RTVSPropertyOp1
 70
     1
102
RTVSPropertyOp2
 70
     1
102
RTVSPropertyOp3
 70
     1
102
RTVSPropertyOp4
 70
     1
102
RTVSPropertyOp5
 70
     1
102
RTVSPropertyOp6
 70
     1
102
RTVSPropertyOp7
 70
     1
102
RTVSPropertyOp8
 70
     1
102
RTVSPropertyOp9
 70
     1
102
RTVSPropertyOp10
 70
     1
102
RTVSPropertyOp11
 70
     1
102
RTVSPropertyOp12
 70
     1
102
RTVSPropertyOp13
 70
     1
102
RTVSPropertyOp14
 70
     1
102
RTVSPropertyOp15
 70
     1
102
RTVSPropertyOp16
 70
     1
102
RTVSPropertyOp17
 70
     1
102
RTVSPropertyOp18
 70
     1
102
RTVSPropertyOp19
 70
     1
102
RTVSPropertyOp20
 70
     1
102
RTVSPropertyOp21
 70
     1
102
RTVSPropertyOp22
 70
     1
102
RTVSPropertyOp23
 70
     1
102
RTVSPropertyOp24
 70
     1
102
RTVSPropertyOp25
 70
     1
102
RTVSPropertyOp26
 70
     1
102
RTVSPropertyOp27
 70
     1
102
RTVSPropertyOp28
 70
     1
102
RTVSPropertyOp29
 70
     1
102
RTVSPropertyOp30
 70
     1
102
RTVSPropertyOp31
 70
     1
102
RTVSPropertyOp32
 70
     1
  0
XRECORD
  5
19A
102
{ACAD_REACTORS
330
199
102
}
330
199
100
AcDbXrecord
280
     1
102
RTVSPropertyOp0
 70
     1
102
RTVSPropertyOp1
 70
     1
102
RTVSPropertyOp2
 70
     1
102
RTVSPropertyOp3
 70
     1
102
RTVSPropertyOp4
 70
     1
102
RTVSPropertyOp5
 70
     1
102
RTVSPropertyOp6
 70
     1
102
RTVSPropertyOp7
 70
     1
102
RTVSPropertyOp8
 70
     1
102
RTVSPropertyOp9
 70
     1
102
RTVSPropertyOp10
 70
     1
102
RTVSPropertyOp11
 70
     1
102
RTVSPropertyOp12
 70
     1
102
RTVSPropertyOp13
 70
     1
102
RTVSPropertyOp14
 70
     1
102
RTVSPropertyOp15
 70
     1
102
RTVSPropertyOp16
 70
     1
102
RTVSPropertyOp17
 70
     1
102
RTVSPropertyOp18
 70
     1
102
RTVSPropertyOp19
 70
     1
102
RTVSPropertyOp20
 70
     1
102
RTVSPropertyOp21
 70
     1
102
RTVSPropertyOp22
 70
     1
102
RTVSPropertyOp23
 70
     1
102
RTVSPropertyOp24
 70
     1
102
RTVSPropertyOp25
 70
     1
102
RTVSPropertyOp26
 70
     1
102
RTVSPropertyOp27
 70
     1
102
RTVSPropertyOp28
 70
     1
102
RTVSPropertyOp29
 70
     1
102
RTVSPropertyOp30
 70
     1
102
RTVSPropertyOp31
 70
     1
102
RTVSPropertyOp32
 70
     1
  0
XRECORD
  5
19E
102
{ACAD_REACTORS
330
19D
102
}
330
19D
100
AcDbXrecord
280
     1
102
RTVSPropertyOp0
 70
     1
102
RTVSPropertyOp1
 70
     1
102
RTVSPropertyOp2
 70
     1
102
RTVSPropertyOp3
 70
     1
102
RTVSPropertyOp4
 70
     1
102
RTVSPropertyOp5
 70
     1
102
RTVSPropertyOp6
 70
     1
102
RTVSPropertyOp7
 70
     1
102
RTVSPropertyOp8
 70
     1
102
RTVSPropertyOp9
 70
     1
102
RTVSPropertyOp10
 70
     1
102
RTVSPropertyOp11
 70
     1
102
RTVSPropertyOp12
 70
     1
102
RTVSPropertyOp13
 70
     1
102
RTVSPropertyOp14
 70
     1
102
RTVSPropertyOp15
 70
     1
102
RTVSPropertyOp16
 70
     1
102
RTVSPropertyOp17
 70
     1
102
RTVSPropertyOp18
 70
     1
102
RTVSPropertyOp19
 70
     1
102
RTVSPropertyOp20
 70
     1
102
RTVSPropertyOp21
 70
     1
102
RTVSPropertyOp22
 70
     1
102
RTVSPropertyOp23
 70
     1
102
RTVSPropertyOp24
 70
     1
102
RTVSPropertyOp25
 70
     1
102
RTVSPropertyOp26
 70
     1
102
RTVSPropertyOp27
 70
     1
102
RTVSPropertyOp28
 70
     1
102
RTVSPropertyOp29
 70
     1
102
RTVSPropertyOp30
 70
     1
102
RTVSPropertyOp31
 70
     1
102
RTVSPropertyOp32
 70
     1
  0
XRECORD
  5
1A6
102
{ACAD_REACTORS
330
1A5
102
}
330
1A5
100
AcDbXrecord
280
     1
102
RTVSPropertyOp0
 70
     1
102
RTVSPropertyOp1
 70
     1
102
RTVSPropertyOp2
 70
     1
102
RTVSPropertyOp3
 70
     1
102
RTVSPropertyOp4
 70
     1
102
RTVSPropertyOp5
 70
     1
102
RTVSPropertyOp6
 70
     1
102
RTVSPropertyOp7
 70
     1
102
RTVSPropertyOp8
 70
     1
102
RTVSPropertyOp9
 70
     1
102
RTVSPropertyOp10
 70
     1
102
RTVSPropertyOp11
 70
     1
102
RTVSPropertyOp12
 70
     1
102
RTVSPropertyOp13
 70
     1
102
RTVSPropertyOp14
 70
     1
102
RTVSPropertyOp15
 70
     1
102
RTVSPropertyOp16
 70
     1
102
RTVSPropertyOp17
 70
     1
102
RTVSPropertyOp18
 70
     1
102
RTVSPropertyOp19
 70
     1
102
RTVSPropertyOp20
 70
     1
102
RTVSPropertyOp21
 70
     1
102
RTVSPropertyOp22
 70
     1
102
RTVSPropertyOp23
 70
     1
102
RTVSPropertyOp24
 70
     1
102
RTVSPropertyOp25
 70
     1
102
RTVSPropertyOp26
 70
     1
102
RTVSPropertyOp27
 70
     1
102
RTVSPropertyOp28
 70
     1
102
RTVSPropertyOp29
 70
     1
102
RTVSPropertyOp30
 70
     1
102
RTVSPropertyOp31
 70
     1
102
RTVSPropertyOp32
 70
     1
  0
XRECORD
  5
1AE
102
{ACAD_REACTORS
330
1AD
102
}
330
1AD
100
AcDbXrecord
280
     1
102
RTVSPropertyOp0
 70
     1
102
RTVSPropertyOp1
 70
     1
102
RTVSPropertyOp2
 70
     1
102
RTVSPropertyOp3
 70
     1
102
RTVSPropertyOp4
 70
     1
102
RTVSPropertyOp5
 70
     1
102
RTVSPropertyOp6
 70
     1
102
RTVSPropertyOp7
 70
     1
102
RTVSPropertyOp8
 70
     1
102
RTVSPropertyOp9
 70
     1
102
RTVSPropertyOp10
 70
     1
102
RTVSPropertyOp11
 70
     1
102
RTVSPropertyOp12
 70
     1
102
RTVSPropertyOp13
 70
     1
102
RTVSPropertyOp14
 70
     1
102
RTVSPropertyOp15
 70
     1
102
RTVSPropertyOp16
 70
     1
102
RTVSPropertyOp17
 70
     1
102
RTVSPropertyOp18
 70
     1
102
RTVSPropertyOp19
 70
     1
102
RTVSPropertyOp20
 70
     1
102
RTVSPropertyOp21
 70
     1
102
RTVSPropertyOp22
 70
     1
102
RTVSPropertyOp23
 70
     1
102
RTVSPropertyOp24
 70
     1
102
RTVSPropertyOp25
 70
     1
102
RTVSPropertyOp26
 70
     1
102
RTVSPropertyOp27
 70
     1
102
RTVSPropertyOp28
 70
     1
102
RTVSPropertyOp29
 70
     1
102
RTVSPropertyOp30
 70
     1
102
RTVSPropertyOp31
 70
     1
102
RTVSPropertyOp32
 70
     1
  0
XRECORD
  5
1A2
102
{ACAD_REACTORS
330
1A1
102
}
330
1A1
100
AcDbXrecord
280
     1
102
RTVSPropertyOp0
 70
     1
102
RTVSPropertyOp1
 70
     1
102
RTVSPropertyOp2
 70
     1
102
RTVSPropertyOp3
 70
     1
102
RTVSPropertyOp4
 70
     1
102
RTVSPropertyOp5
 70
     1
102
RTVSPropertyOp6
 70
     1
102
RTVSPropertyOp7
 70
     1
102
RTVSPropertyOp8
 70
     1
102
RTVSPropertyOp9
 70
     1
102
RTVSPropertyOp10
 70
     1
102
RTVSPropertyOp11
 70
     1
102
RTVSPropertyOp12
 70
     1
102
RTVSPropertyOp13
 70
     1
102
RTVSPropertyOp14
 70
     1
102
RTVSPropertyOp15
 70
     1
102
RTVSPropertyOp16
 70
     1
102
RTVSPropertyOp17
 70
     1
102
RTVSPropertyOp18
 70
     1
102
RTVSPropertyOp19
 70
     1
102
RTVSPropertyOp20
 70
     1
102
RTVSPropertyOp21
 70
     1
102
RTVSPropertyOp22
 70
     1
102
RTVSPropertyOp23
 70
     1
102
RTVSPropertyOp24
 70
     1
102
RTVSPropertyOp25
 70
     1
102
RTVSPropertyOp26
 70
     1
102
RTVSPropertyOp27
 70
     1
102
RTVSPropertyOp28
 70
     1
102
RTVSPropertyOp29
 70
     1
102
RTVSPropertyOp30
 70
     1
102
RTVSPropertyOp31
 70
     1
102
RTVSPropertyOp32
 70
     1
  0
XRECORD
  5
1A4
102
{ACAD_REACTORS
330
1A3
102
}
330
1A3
100
AcDbXrecord
280
     1
102
RTVSPropertyOp0
 70
     1
102
RTVSPropertyOp1
 70
     1
102
RTVSPropertyOp2
 70
     1
102
RTVSPropertyOp3
 70
     1
102
RTVSPropertyOp4
 70
     1
102
RTVSPropertyOp5
 70
     1
102
RTVSPropertyOp6
 70
     1
102
RTVSPropertyOp7
 70
     1
102
RTVSPropertyOp8
 70
     1
102
RTVSPropertyOp9
 70
     1
102
RTVSPropertyOp10
 70
     1
102
RTVSPropertyOp11
 70
     1
102
RTVSPropertyOp12
 70
     1
102
RTVSPropertyOp13
 70
     1
102
RTVSPropertyOp14
 70
     1
102
RTVSPropertyOp15
 70
     1
102
RTVSPropertyOp16
 70
     1
102
RTVSPropertyOp17
 70
     1
102
RTVSPropertyOp18
 70
     1
102
RTVSPropertyOp19
 70
     1
102
RTVSPropertyOp20
 70
     1
102
RTVSPropertyOp21
 70
     1
102
RTVSPropertyOp22
 70
     1
102
RTVSPropertyOp23
 70
     1
102
RTVSPropertyOp24
 70
     1
102
RTVSPropertyOp25
 70
     1
102
RTVSPropertyOp26
 70
     1
102
RTVSPropertyOp27
 70
     1
102
RTVSPropertyOp28
 70
     1
102
RTVSPropertyOp29
 70
     1
102
RTVSPropertyOp30
 70
     1
102
RTVSPropertyOp31
 70
     1
102
RTVSPropertyOp32
 70
     1
  0
XRECORD
  5
1AC
102
{ACAD_REACTORS
330
1AB
102
}
330
1AB
100
AcDbXrecord
280
     1
102
RTVSPropertyOp0
 70
     1
102
RTVSPropertyOp1
 70
     1
102
RTVSPropertyOp2
 70
     1
102
RTVSPropertyOp3
 70
     1
102
RTVSPropertyOp4
 70
     1
102
RTVSPropertyOp5
 70
     1
102
RTVSPropertyOp6
 70
     1
102
RTVSPropertyOp7
 70
     1
102
RTVSPropertyOp8
 70
     1
102
RTVSPropertyOp9
 70
     1
102
RTVSPropertyOp10
 70
     1
102
RTVSPropertyOp11
 70
     1
102
RTVSPropertyOp12
 70
     1
102
RTVSPropertyOp13
 70
     1
102
RTVSPropertyOp14
 70
     1
102
RTVSPropertyOp15
 70
     1
102
RTVSPropertyOp16
 70
     1
102
RTVSPropertyOp17
 70
     1
102
RTVSPropertyOp18
 70
     1
102
RTVSPropertyOp19
 70
     1
102
RTVSPropertyOp20
 70
     1
102
RTVSPropertyOp21
 70
     1
102
RTVSPropertyOp22
 70
     1
102
RTVSPropertyOp23
 70
     1
102
RTVSPropertyOp24
 70
     1
102
RTVSPropertyOp25
 70
     1
102
RTVSPropertyOp26
 70
     1
102
RTVSPropertyOp27
 70
     1
102
RTVSPropertyOp28
 70
     1
102
RTVSPropertyOp29
 70
     1
102
RTVSPropertyOp30
 70
     1
102
RTVSPropertyOp31
 70
     1
102
RTVSPropertyOp32
 70
     1
  0
XRECORD
  5
190
102
{ACAD_REACTORS
330
18F
102
}
330
18F
100
AcDbXrecord
280
     1
102
RTVSPropertyOp0
 70
     1
102
RTVSPropertyOp1
 70
     1
102
RTVSPropertyOp2
 70
     1
102
RTVSPropertyOp3
 70
     1
102
RTVSPropertyOp4
 70
     1
102
RTVSPropertyOp5
 70
     1
102
RTVSPropertyOp6
 70
     1
102
RTVSPropertyOp7
 70
     1
102
RTVSPropertyOp8
 70
     1
102
RTVSPropertyOp9
 70
     1
102
RTVSPropertyOp10
 70
     1
102
RTVSPropertyOp11
 70
     1
102
RTVSPropertyOp12
 70
     1
102
RTVSPropertyOp13
 70
     1
102
RTVSPropertyOp14
 70
     1
102
RTVSPropertyOp15
 70
     1
102
RTVSPropertyOp16
 70
     1
102
RTVSPropertyOp17
 70
     1
102
RTVSPropertyOp18
 70
     1
102
RTVSPropertyOp19
 70
     1
102
RTVSPropertyOp20
 70
     1
102
RTVSPropertyOp21
 70
     1
102
RTVSPropertyOp22
 70
     1
102
RTVSPropertyOp23
 70
     1
102
RTVSPropertyOp24
 70
     1
102
RTVSPropertyOp25
 70
     1
102
RTVSPropertyOp26
 70
     1
102
RTVSPropertyOp27
 70
     1
102
RTVSPropertyOp28
 70
     1
102
RTVSPropertyOp29
 70
     1
102
RTVSPropertyOp30
 70
     1
102
RTVSPropertyOp31
 70
     1
102
RTVSPropertyOp32
 70
     1
  0
XRECORD
  5
192
102
{ACAD_REACTORS
330
191
102
}
330
191
100
AcDbXrecord
280
     1
102
RTVSPropertyOp0
 70
     1
102
RTVSPropertyOp1
 70
     1
102
RTVSPropertyOp2
 70
     1
102
RTVSPropertyOp3
 70
     1
102
RTVSPropertyOp4
 70
     1
102
RTVSPropertyOp5
 70
     1
102
RTVSPropertyOp6
 70
     1
102
RTVSPropertyOp7
 70
     1
102
RTVSPropertyOp8
 70
     1
102
RTVSPropertyOp9
 70
     1
102
RTVSPropertyOp10
 70
     1
102
RTVSPropertyOp11
 70
     1
102
RTVSPropertyOp12
 70
     1
102
RTVSPropertyOp13
 70
     1
102
RTVSPropertyOp14
 70
     1
102
RTVSPropertyOp15
 70
     1
102
RTVSPropertyOp16
 70
     1
102
RTVSPropertyOp17
 70
     1
102
RTVSPropertyOp18
 70
     1
102
RTVSPropertyOp19
 70
     1
102
RTVSPropertyOp20
 70
     1
102
RTVSPropertyOp21
 70
     1
102
RTVSPropertyOp22
 70
     1
102
RTVSPropertyOp23
 70
     1
102
RTVSPropertyOp24
 70
     1
102
RTVSPropertyOp25
 70
     1
102
RTVSPropertyOp26
 70
     1
102
RTVSPropertyOp27
 70
     1
102
RTVSPropertyOp28
 70
     1
102
RTVSPropertyOp29
 70
     1
102
RTVSPropertyOp30
 70
     1
102
RTVSPropertyOp31
 70
     1
102
RTVSPropertyOp32
 70
     1
  0
XRECORD
  5
194
102
{ACAD_REACTORS
330
193
102
}
330
193
100
AcDbXrecord
280
     1
102
RTVSPropertyOp0
 70
     1
102
RTVSPropertyOp1
 70
     1
102
RTVSPropertyOp2
 70
     1
102
RTVSPropertyOp3
 70
     1
102
RTVSPropertyOp4
 70
     1
102
RTVSPropertyOp5
 70
     1
102
RTVSPropertyOp6
 70
     1
102
RTVSPropertyOp7
 70
     1
102
RTVSPropertyOp8
 70
     1
102
RTVSPropertyOp9
 70
     1
102
RTVSPropertyOp10
 70
     1
102
RTVSPropertyOp11
 70
     1
102
RTVSPropertyOp12
 70
     1
102
RTVSPropertyOp13
 70
     1
102
RTVSPropertyOp14
 70
     1
102
RTVSPropertyOp15
 70
     1
102
RTVSPropertyOp16
 70
     1
102
RTVSPropertyOp17
 70
     1
102
RTVSPropertyOp18
 70
     1
102
RTVSPropertyOp19
 70
     1
102
RTVSPropertyOp20
 70
     1
102
RTVSPropertyOp21
 70
     1
102
RTVSPropertyOp22
 70
     1
102
RTVSPropertyOp23
 70
     1
102
RTVSPropertyOp24
 70
     1
102
RTVSPropertyOp25
 70
     1
102
RTVSPropertyOp26
 70
     1
102
RTVSPropertyOp27
 70
     1
102
RTVSPropertyOp28
 70
     1
102
RTVSPropertyOp29
 70
     1
102
RTVSPropertyOp30
 70
     1
102
RTVSPropertyOp31
 70
     1
102
RTVSPropertyOp32
 70
     1
  0
XRECORD
  5
196
102
{ACAD_REACTORS
330
195
102
}
330
195
100
AcDbXrecord
280
     1
102
RTVSPropertyOp0
 70
     1
102
RTVSPropertyOp1
 70
     1
102
RTVSPropertyOp2
 70
     1
102
RTVSPropertyOp3
 70
     1
102
RTVSPropertyOp4
 70
     1
102
RTVSPropertyOp5
 70
     1
102
RTVSPropertyOp6
 70
     1
102
RTVSPropertyOp7
 70
     1
102
RTVSPropertyOp8
 70
     1
102
RTVSPropertyOp9
 70
     1
102
RTVSPropertyOp10
 70
     1
102
RTVSPropertyOp11
 70
     1
102
RTVSPropertyOp12
 70
     1
102
RTVSPropertyOp13
 70
     1
102
RTVSPropertyOp14
 70
     1
102
RTVSPropertyOp15
 70
     1
102
RTVSPropertyOp16
 70
     1
102
RTVSPropertyOp17
 70
     1
102
RTVSPropertyOp18
 70
     1
102
RTVSPropertyOp19
 70
     1
102
RTVSPropertyOp20
 70
     1
102
RTVSPropertyOp21
 70
     1
102
RTVSPropertyOp22
 70
     1
102
RTVSPropertyOp23
 70
     1
102
RTVSPropertyOp24
 70
     1
102
RTVSPropertyOp25
 70
     1
102
RTVSPropertyOp26
 70
     1
102
RTVSPropertyOp27
 70
     1
102
RTVSPropertyOp28
 70
     1
102
RTVSPropertyOp29
 70
     1
102
RTVSPropertyOp30
 70
     1
102
RTVSPropertyOp31
 70
     1
102
RTVSPropertyOp32
 70
     1
  0
XRECORD
  5
1AA
102
{ACAD_REACTORS
330
1A9
102
}
330
1A9
100
AcDbXrecord
280
     1
102
RTVSPropertyOp0
 70
     1
102
RTVSPropertyOp1
 70
     1
102
RTVSPropertyOp2
 70
     1
102
RTVSPropertyOp3
 70
     1
102
RTVSPropertyOp4
 70
     1
102
RTVSPropertyOp5
 70
     1
102
RTVSPropertyOp6
 70
     1
102
RTVSPropertyOp7
 70
     1
102
RTVSPropertyOp8
 70
     1
102
RTVSPropertyOp9
 70
     1
102
RTVSPropertyOp10
 70
     1
102
RTVSPropertyOp11
 70
     1
102
RTVSPropertyOp12
 70
     1
102
RTVSPropertyOp13
 70
     1
102
RTVSPropertyOp14
 70
     1
102
RTVSPropertyOp15
 70
     1
102
RTVSPropertyOp16
 70
     1
102
RTVSPropertyOp17
 70
     1
102
RTVSPropertyOp18
 70
     1
102
RTVSPropertyOp19
 70
     1
102
RTVSPropertyOp20
 70
     1
102
RTVSPropertyOp21
 70
     1
102
RTVSPropertyOp22
 70
     1
102
RTVSPropertyOp23
 70
     1
102
RTVSPropertyOp24
 70
     1
102
RTVSPropertyOp25
 70
     1
102
RTVSPropertyOp26
 70
     1
102
RTVSPropertyOp27
 70
     1
102
RTVSPropertyOp28
 70
     1
102
RTVSPropertyOp29
 70
     1
102
RTVSPropertyOp30
 70
     1
102
RTVSPropertyOp31
 70
     1
102
RTVSPropertyOp32
 70
     1
  0
XRECORD
  5
1A0
102
{ACAD_REACTORS
330
19F
102
}
330
19F
100
AcDbXrecord
280
     1
102
RTVSPropertyOp0
 70
     1
102
RTVSPropertyOp1
 70
     1
102
RTVSPropertyOp2
 70
     1
102
RTVSPropertyOp3
 70
     1
102
RTVSPropertyOp4
 70
     1
102
RTVSPropertyOp5
 70
     1
102
RTVSPropertyOp6
 70
     1
102
RTVSPropertyOp7
 70
     1
102
RTVSPropertyOp8
 70
     1
102
RTVSPropertyOp9
 70
     1
102
RTVSPropertyOp10
 70
     1
102
RTVSPropertyOp11
 70
     1
102
RTVSPropertyOp12
 70
     1
102
RTVSPropertyOp13
 70
     1
102
RTVSPropertyOp14
 70
     1
102
RTVSPropertyOp15
 70
     1
102
RTVSPropertyOp16
 70
     1
102
RTVSPropertyOp17
 70
     1
102
RTVSPropertyOp18
 70
     1
102
RTVSPropertyOp19
 70
     1
102
RTVSPropertyOp20
 70
     1
102
RTVSPropertyOp21
 70
     1
102
RTVSPropertyOp22
 70
     1
102
RTVSPropertyOp23
 70
     1
102
RTVSPropertyOp24
 70
     1
102
RTVSPropertyOp25
 70
     1
102
RTVSPropertyOp26
 70
     1
102
RTVSPropertyOp27
 70
     1
102
RTVSPropertyOp28
 70
     1
102
RTVSPropertyOp29
 70
     1
102
RTVSPropertyOp30
 70
     1
102
RTVSPropertyOp31
 70
     1
102
RTVSPropertyOp32
 70
     1
  0
XRECORD
  5
1A8
102
{ACAD_REACTORS
330
1A7
102
}
330
1A7
100
AcDbXrecord
280
     1
102
RTVSPropertyOp0
 70
     1
102
RTVSPropertyOp1
 70
     1
102
RTVSPropertyOp2
 70
     1
102
RTVSPropertyOp3
 70
     1
102
RTVSPropertyOp4
 70
     1
102
RTVSPropertyOp5
 70
     1
102
RTVSPropertyOp6
 70
     1
102
RTVSPropertyOp7
 70
     1
102
RTVSPropertyOp8
 70
     1
102
RTVSPropertyOp9
 70
     1
102
RTVSPropertyOp10
 70
     1
102
RTVSPropertyOp11
 70
     1
102
RTVSPropertyOp12
 70
     1
102
RTVSPropertyOp13
 70
     1
102
RTVSPropertyOp14
 70
     1
102
RTVSPropertyOp15
 70
     1
102
RTVSPropertyOp16
 70
     1
102
RTVSPropertyOp17
 70
     1
102
RTVSPropertyOp18
 70
     1
102
RTVSPropertyOp19
 70
     1
102
RTVSPropertyOp20
 70
     1
102
RTVSPropertyOp21
 70
     1
102
RTVSPropertyOp22
 70
     1
102
RTVSPropertyOp23
 70
     1
102
RTVSPropertyOp24
 70
     1
102
RTVSPropertyOp25
 70
     1
102
RTVSPropertyOp26
 70
     1
102
RTVSPropertyOp27
 70
     1
102
RTVSPropertyOp28
 70
     1
102
RTVSPropertyOp29
 70
     1
102
RTVSPropertyOp30
 70
     1
102
RTVSPropertyOp31
 70
     1
102
RTVSPropertyOp32
 70
     1
  0
ENDSEC
  0
EOF
